<?xml version="1.0" standalone="no"?>
<!DOCTYPE svg PUBLIC "-//W3C//DTD SVG 1.1//EN" "http://www.w3.org/Graphics/SVG/1.1/DTD/svg11.dtd" >
<svg xmlns="http://www.w3.org/2000/svg" xmlns:xlink="http://www.w3.org/1999/xlink" version="1.1">
<metadata>
Created by FontForge 20201107 at Tue Jun 28 18:30:47 2022
 By 
(c) Copyright 1998, Neufville Digital. ALL RIGHTS RESERVED. This font is licensed, not sold, and may not be reproduced without the written consent of Neufville Digital. Parts (c) Visualogik Technology &#38; Design, 1998.
</metadata>
<defs>
<font id="Futura-Medium" horiz-adv-x="1158" >
  <font-face 
    font-family="Futura"
    font-weight="500"
    font-stretch="normal"
    units-per-em="2048"
    panose-1="2 11 6 2 2 2 4 2 3 3"
    ascent="1638"
    descent="-410"
    x-height="974"
    cap-height="1544"
    bbox="-1074 -591 2707 2164"
    underline-thickness="160"
    underline-position="-280"
    unicode-range="U+0008-FB02"
  />
<missing-glyph horiz-adv-x="748" 
d="M68 0v1365h544v-1365h-544zM136 68h408v1229h-408v-1229z" />
    <glyph glyph-name="fi" unicode="fi" horiz-adv-x="1087" 
d="M944 1231h-225v91q0 74 -48 130q-51 57 -125 57q-73 0 -123 -56q-49 -55 -49 -131v-348h258v-210h-258v-764h-225v764h-80v210h80v348q0 164 116 280q117 117 282 117q164 0 280 -117q117 -116 117 -280v-91zM944 0h-225v974h225v-974z" />
    <glyph glyph-name="fl" unicode="fl" horiz-adv-x="1087" 
d="M944 0h-225v1322q0 74 -50 130q-50 57 -123 57t-123 -56q-49 -55 -49 -131v-348h258v-210h-258v-764h-225v764h-80v210h80v348q0 164 117 280q117 117 281 117t280 -117q117 -116 117 -280v-1322z" />
    <glyph glyph-name=".notdef" horiz-adv-x="748" 
d="M68 0v1365h544v-1365h-544zM136 68h408v1229h-408v-1229z" />
    <glyph glyph-name=".null" horiz-adv-x="0" 
 />
    <glyph glyph-name=".null" horiz-adv-x="0" 
 />
    <glyph glyph-name="nonmarkingreturn" horiz-adv-x="682" 
 />
    <glyph glyph-name="controlBS" horiz-adv-x="0" 
 />
    <glyph glyph-name="controlHT" unicode="&#x9;" horiz-adv-x="632" 
 />
    <glyph glyph-name="controlCR" unicode="&#xd;" horiz-adv-x="1024" 
 />
    <glyph glyph-name="controlGS" horiz-adv-x="0" 
 />
    <glyph glyph-name="space" unicode=" " horiz-adv-x="632" 
 />
    <glyph glyph-name="exclam" unicode="!" horiz-adv-x="679" 
d="M201 112q0 56 41 97t98 41t98 -41t41 -98q0 -58 -41 -99q-40 -40 -98 -40q-59 0 -99 40t-40 100zM227 344v1200h226v-1200h-226z" />
    <glyph glyph-name="quotedbl" unicode="&#x22;" horiz-adv-x="840" 
d="M322 923h-170l-43 621h256zM688 923h-170l-43 621h256z" />
    <glyph glyph-name="numbersign" unicode="#" horiz-adv-x="1264" 
d="M1227 1110v-176h-243l-36 -287h222v-176h-244l-59 -478l-176 23l57 455h-297l-60 -478l-178 23l57 459h-228v172h253l36 287h-231v176h253l55 448l175 -23l-53 -425h295l56 448l175 -23l-53 -425h224zM803 934h-294l-36 -287h296z" />
    <glyph glyph-name="dollar" unicode="$" horiz-adv-x="1264" 
d="M743 1763v-196q118 -19 193 -78t143 -181l-195 -109q-88 160 -230 160q-88 0 -146 -52t-58 -130q0 -71 47 -118q46 -46 186 -109q121 -55 200 -103.5t119 -93.5q113 -122 113 -295q0 -170 -102 -300q-101 -129 -270 -174v-207h-175v201q-196 32 -299 135t-152 318l220 46
q45 -152 110 -217q68 -62 181 -62q110 0 184 71q73 70 73 181q0 99 -61 159q-31 29 -91.5 65.5t-154.5 79.5q-194 87 -255 160q-97 109 -97 261q0 72 23 134t66.5 112.5t107.5 87.5t145 58v196h175z" />
    <glyph glyph-name="percent" unicode="%" horiz-adv-x="1876" 
d="M77 1201q0 145 111 252q113 107 261 107q152 0 262 -108q110 -107 110 -256q0 -150 -110 -257t-265 -107q-152 0 -261 109q-108 109 -108 260zM251 1198q0 -84 58 -142t141 -58q81 0 139 58t58 140q0 81 -58 139t-140 58t-140 -58t-58 -137zM1326 1571l109 -62
l-884 -1534l-110 66zM1054 355q0 144 111 251q113 107 261 107q153 0 263 -108q110 -107 110 -256q0 -151 -111 -257q-109 -106 -265 -106q-152 0 -261 108q-108 108 -108 261zM1229 351q0 -84 57 -142q58 -58 141 -58q82 0 139 58q58 58 58 140t-58 140q-57 58 -140 58
q-81 0 -139 -58t-58 -138z" />
    <glyph glyph-name="ampersand" unicode="&#x26;" horiz-adv-x="1497" 
d="M792 859l278 -336l9 10q45 49 85 96t77 95l152 -156q-28 -40 -73.5 -93t-108.5 -122l286 -353h-290l-154 189q-212 -219 -441 -219q-205 0 -348 131q-140 132 -140 326q0 231 222 384l101 69q2 1 7 5t14 11q-153 163 -153 321q0 156 102 254q104 98 268 98q159 0 263 -95
t104 -240q0 -100 -57 -181q-56 -81 -203 -194zM607 728l-13 -9q-143 -99 -195 -159q-51 -60 -51 -127q0 -96 77 -176q80 -77 176 -77q135 0 311 177zM657 1023l19 14q49 37 81 64.5t46 46.5q30 37 30 91q0 61 -41 99t-110 38q-63 0 -106 -39q-43 -37 -43 -95q0 -68 54 -134
l58 -70q3 -5 12 -15z" />
    <glyph glyph-name="quotesingle" unicode="'" horiz-adv-x="474" 
d="M322 923h-170l-43 621h256z" />
    <glyph glyph-name="parenleft" unicode="(" horiz-adv-x="750" 
d="M403 1706l208 -80q-109 -261 -153 -482q-22 -112 -33 -235.5t-11 -269.5q0 -147 11 -270.5t33 -235.5q43 -220 153 -481l-208 -80q-218 457 -218 1067t218 1067z" />
    <glyph glyph-name="parenright" unicode=")" horiz-adv-x="750" 
d="M347 -428l-208 80q110 261 153 481q45 220 45 506q0 284 -45 505q-44 221 -153 482l208 80q218 -457 218 -1067t-218 -1067z" />
    <glyph glyph-name="asterisk" unicode="*" horiz-adv-x="1264" 
d="M546 1419l-15 270h201l-16 -270l253 98l62 -191l-262 -68l171 -210l-162 -118l-147 228l-146 -228l-163 118l172 209l-262 69l62 191z" />
    <glyph glyph-name="plus" unicode="+" horiz-adv-x="1264" 
d="M99 710v186h440v432h185v-432h440v-186h-440v-432h-185v432h-440z" />
    <glyph glyph-name="comma" unicode="," horiz-adv-x="632" 
d="M281 289l200 -78l-285 -571l-152 63z" />
    <glyph glyph-name="hyphen" unicode="-" horiz-adv-x="446" 
d="M0 593h446v-196h-446v196z" />
    <glyph glyph-name="period" unicode="." horiz-adv-x="632" 
d="M177 112q0 56 41 97t98 41t98 -41t41 -98q0 -58 -41 -99q-40 -40 -98 -40q-59 0 -99 40t-40 100z" />
    <glyph glyph-name="slash" unicode="/" horiz-adv-x="1061" 
d="M868 1706l186 -82l-884 -2046l-184 83z" />
    <glyph glyph-name="zero" unicode="0" horiz-adv-x="1264" 
d="M87 782q0 369 172 589q154 199 373 199t373 -199q172 -220 172 -599q0 -378 -172 -598q-154 -199 -372 -199t-374 199q-172 220 -172 608zM316 781q0 -257 89 -427q89 -167 227 -167q137 0 227 167q90 166 90 419t-90 420q-90 166 -227 166q-136 0 -226 -166
q-90 -165 -90 -412z" />
    <glyph glyph-name="one" unicode="1" horiz-adv-x="1264" 
d="M555 1326h-267l128 218h372v-1544h-233v1326z" />
    <glyph glyph-name="two" unicode="2" horiz-adv-x="1264" 
d="M513 219h575v-219h-1037l536 649q79 97 132.5 168t81.5 119q57 94 57 169q0 108 -76 181t-188 73q-234 0 -268 -277h-232q56 488 493 488q211 0 354 -134q144 -134 144 -332q0 -126 -67 -247q-34 -63 -99.5 -149.5t-165.5 -204.5z" />
    <glyph glyph-name="three" unicode="3" horiz-adv-x="1264" 
d="M530 717v199q148 0 199 33q91 58 91 186q0 99 -66 161q-65 63 -169 63q-97 0 -150 -47q-51 -48 -76 -162h-232q36 218 148 319.5t313 101.5q203 0 331 -120q128 -119 128 -307q0 -212 -168 -330q192 -113 192 -367q0 -208 -140 -340t-359 -132q-279 0 -414 205
q-56 86 -71 238h225q18 -112 87.5 -171.5t181.5 -59.5q113 0 187 75q74 77 74 195q0 156 -111 222q-65 38 -201 38z" />
    <glyph glyph-name="four" unicode="4" horiz-adv-x="1264" 
d="M1010 431h164v-212h-164v-219h-233v219h-758l991 1440v-1228zM777 431v517l-356 -517h356z" />
    <glyph glyph-name="five" unicode="5" horiz-adv-x="1264" 
d="M1077 1326h-476l-76 -256q17 2 32.5 3t28.5 1q225 0 369 -152q145 -151 145 -387q0 -244 -164 -402t-413 -158q-307 0 -484 288l176 149q73 -124 147 -175q74 -50 181 -50q140 0 235 98q95 101 95 245q0 148 -94 242q-94 97 -235 97q-157 0 -271 -137h-77l243 812h638
v-218z" />
    <glyph glyph-name="six" unicode="6" horiz-adv-x="1264" 
d="M804 1598l171 -128l-369 -502q30 4 51 6t33 2q188 0 325 -144q136 -142 136 -342q0 -212 -152 -364q-151 -151 -363 -151q-210 0 -368 149q-155 149 -155 353q0 183 151 388zM924 475q0 123 -85 208q-86 86 -207 86q-122 0 -207 -85t-85 -206t85 -206t208 -85
q120 0 205 85q86 86 86 203z" />
    <glyph glyph-name="seven" unicode="7" horiz-adv-x="1264" 
d="M868 1326h-762v218h1151l-974 -1597l-185 117z" />
    <glyph glyph-name="eight" unicode="8" horiz-adv-x="1264" 
d="M356 803q-170 120 -170 327q0 188 129 314q130 126 323 126q192 0 320 -126q128 -125 128 -315q0 -199 -169 -325q93 -50 146 -146q54 -96 54 -216q0 -205 -134 -336t-343 -131q-214 0 -353 132q-140 132 -140 332q0 260 209 364zM405 1131q0 -99 67 -166q68 -68 164 -68
q95 0 163 68t68 163t-68 163t-163 68t-163 -68t-68 -160zM376 447q0 -107 74 -184q75 -76 182 -76q106 0 181 75q75 76 75 182q0 107 -75 182t-181 75q-105 0 -181 -75q-75 -75 -75 -179z" />
    <glyph glyph-name="nine" unicode="9" horiz-adv-x="1264" 
d="M460 -53l-171 127l369 503q-30 -4 -51 -6t-34 -2q-187 0 -324 143q-136 142 -136 342q0 213 151 364q152 152 364 152q211 0 367 -150q156 -149 156 -352q0 -180 -152 -389zM340 1071q0 -125 85 -210q86 -86 207 -86t206 85q86 86 86 207t-86 207q-85 85 -207 85
q-120 0 -205 -85q-86 -86 -86 -203z" />
    <glyph glyph-name="colon" unicode=":" horiz-adv-x="632" 
d="M177 112q0 56 41 97t98 41t98 -41t41 -98q0 -58 -41 -99q-40 -40 -98 -40q-59 0 -99 40t-40 100zM177 864q0 55 41 96t98 41t98 -41t41 -98q0 -58 -41 -99q-40 -40 -98 -40t-99 41q-40 40 -40 100z" />
    <glyph glyph-name="semicolon" unicode=";" horiz-adv-x="632" 
d="M281 289l200 -78l-285 -571l-152 63zM226 863q0 56 41 97t98 41t98 -41t41 -98q0 -58 -41 -99q-40 -40 -98 -40t-99 41q-40 40 -40 99z" />
    <glyph glyph-name="less" unicode="&#x3c;" horiz-adv-x="1264" 
d="M1134 1372v-230l-758 -359l758 -359v-228l-1004 490v197z" />
    <glyph glyph-name="equal" unicode="=" horiz-adv-x="1264" 
d="M99 880v170h1065v-170h-1065zM99 556v170h1065v-170h-1065z" />
    <glyph glyph-name="greater" unicode="&#x3e;" horiz-adv-x="1264" 
d="M130 195v230l757 358l-757 360v228l1003 -490v-197z" />
    <glyph glyph-name="question" unicode="?" horiz-adv-x="1002" 
d="M619 721h226q0 -152 -81 -245q-105 -121 -269 -121q-144 0 -241 100q-98 101 -98 247q0 116 61 186q62 71 210 124q147 54 186 87q40 33 40 102t-41.5 109.5t-110.5 40.5t-110 -40t-41 -109q0 -31 12 -86h-233q-2 26 -3.5 46t-1.5 36q0 158 107 263q106 105 268 105
q163 0 272 -106t109 -265q0 -163 -109 -263q-69 -63 -260 -122q-130 -40 -130 -126q0 -24 9.5 -45.5t25.5 -37.5t37.5 -25t45.5 -9q110 0 120 154zM364 112q0 56 41 97t98 41t98 -41t41 -98q0 -58 -41 -99q-40 -40 -97 -40q-59 0 -99 40q-41 41 -41 100z" />
    <glyph glyph-name="at" unicode="@" horiz-adv-x="1803" 
d="M1328 1176l-63 -525q-4 -29 -5.5 -55.5t-1.5 -49.5q0 -75 62 -75q87 0 158 123q70 121 70 276q0 246 -172 403q-171 159 -437 159q-278 0 -468 -190q-189 -189 -189 -468q0 -154 68 -302q69 -139 193 -229q166 -120 416 -120q234 0 490 119l15 8l52 -144l-12 -6
q-261 -126 -544 -126q-313 0 -524 151q-155 110 -242 281q-86 180 -86 366q0 339 239 569t590 230q323 0 541 -198q217 -196 217 -491q0 -228 -118 -391q-119 -165 -279 -165q-128 0 -174 121q-123 -126 -274 -126q-165 0 -275 119q-108 118 -108 301q0 197 121 324
q121 130 304 130q168 0 271 -130l14 111h151zM1124 790q0 93 -63 155q-65 62 -158 62q-101 0 -165 -78q-65 -77 -65 -197q0 -104 52 -171t134 -67q105 0 185 89t80 207z" />
    <glyph glyph-name="A" unicode="A" horiz-adv-x="1517" 
d="M1092 375h-661l-172 -375h-251l764 1641l737 -1641h-255zM997 594l-229 525l-240 -525h469z" />
    <glyph glyph-name="B" unicode="B" horiz-adv-x="1211" 
d="M185 0v1544h232q155 0 247 -24q93 -24 157 -81q65 -59 103 -147q39 -89 39 -180q0 -166 -127 -281q123 -42 194 -147q72 -104 72 -242q0 -181 -128 -306q-77 -77 -173 -107q-105 -29 -263 -29h-353zM418 881h73q130 0 190.5 57.5t60.5 169.5q0 109 -62 165.5t-180 56.5
h-82v-449zM418 219h144q158 0 232 62q78 67 78 170q0 100 -75 168q-73 67 -261 67h-118v-467z" />
    <glyph glyph-name="C" unicode="C" horiz-adv-x="1435" 
d="M1326 1461v-276q-202 169 -418 169q-238 0 -401 -171q-164 -170 -164 -416q0 -243 164 -410t402 -167q123 0 209 40q48 20 99.5 54t108.5 82v-281q-200 -113 -420 -113q-331 0 -565 231q-233 233 -233 562q0 295 195 526q240 283 621 283q208 0 402 -113z" />
    <glyph glyph-name="D" unicode="D" horiz-adv-x="1487" 
d="M185 0v1544h324q233 0 368 -46q145 -45 263 -153q239 -218 239 -573q0 -356 -249 -576q-125 -110 -262 -153q-128 -43 -363 -43h-320zM418 219h105q157 0 261 33q104 35 188 111q172 157 172 409q0 254 -170 412q-153 141 -451 141h-105v-1106z" />
    <glyph glyph-name="E" unicode="E" 
d="M1037 1325h-619v-371h601v-219h-601v-516h619v-219h-852v1544h852v-219z" />
    <glyph glyph-name="F" unicode="F" horiz-adv-x="1041" 
d="M956 1325h-538v-371h519v-219h-519v-735h-233v1544h771v-219z" />
    <glyph glyph-name="G" unicode="G" horiz-adv-x="1725" 
d="M979 804h638v-51q0 -174 -41 -308q-40 -124 -135 -232q-215 -242 -547 -242q-324 0 -555 234q-231 235 -231 564q0 336 235 570q235 235 572 235q181 0 338 -74q150 -74 295 -240l-166 -159q-190 253 -463 253q-245 0 -411 -169q-166 -166 -166 -416q0 -258 185 -425
q173 -155 375 -155q172 0 309 116q137 117 153 280h-385v219z" />
    <glyph glyph-name="H" unicode="H" horiz-adv-x="1502" 
d="M418 940h666v604h233v-1544h-233v721h-666v-721h-233v1544h233v-604z" />
    <glyph glyph-name="I" unicode="I" horiz-adv-x="604" 
d="M418 1544v-1544h-233v1544h233z" />
    <glyph glyph-name="J" unicode="J" horiz-adv-x="840" 
d="M655 1544v-999q0 -179 -25 -267q-25 -100 -85 -169q-117 -137 -310 -137q-146 0 -273 76l114 199q85 -57 159 -57q104 0 144 79q42 79 42 276v999h234z" />
    <glyph glyph-name="K" unicode="K" horiz-adv-x="1357" 
d="M418 928l601 616h311l-698 -699l702 -845h-312l-556 687l-48 -48v-639h-233v1544h233v-616z" />
    <glyph glyph-name="L" unicode="L" horiz-adv-x="908" 
d="M418 1544v-1325h454v-219h-687v1544h233z" />
    <glyph glyph-name="M" unicode="M" horiz-adv-x="1969" 
d="M131 0l325 1660l530 -1200l549 1200l292 -1660h-239l-149 932l-457 -1003l-444 1004l-166 -933h-241z" />
    <glyph glyph-name="N" unicode="N" horiz-adv-x="1729" 
d="M185 0v1649l1126 -1178v1073h233v-1638l-1126 1175v-1081h-233z" />
    <glyph glyph-name="O" unicode="O" horiz-adv-x="1830" 
d="M108 779q0 326 239 560q238 234 572 234q330 0 566 -236q237 -236 237 -567q0 -333 -238 -565q-239 -233 -577 -233q-299 0 -537 207q-262 229 -262 600zM343 776q0 -256 172 -421q171 -165 395 -165q243 0 410 168q167 170 167 414q0 247 -165 414q-164 168 -406 168
q-241 0 -407 -168q-166 -166 -166 -410z" />
    <glyph glyph-name="P" unicode="P" horiz-adv-x="1106" 
d="M418 627v-627h-233v1544h264q194 0 293 -27q100 -27 176 -102q133 -130 133 -328q0 -212 -142 -336t-383 -124h-108zM418 843h87q321 0 321 247q0 239 -331 239h-77v-486z" />
    <glyph glyph-name="Q" unicode="Q" horiz-adv-x="1830" 
d="M1756 -28h-293l-121 124q-193 -124 -430 -124q-307 0 -545 208q-259 229 -259 585q0 349 245 582q238 226 562 226q294 0 527 -198q280 -238 280 -621q0 -300 -221 -533zM1115 611l224 -223q148 154 148 381q0 249 -165 417t-410 168q-248 0 -408 -168
q-161 -167 -161 -423q0 -250 166 -409q173 -164 395 -164q151 0 273 69l-363 352h301z" />
    <glyph glyph-name="R" unicode="R" horiz-adv-x="1233" 
d="M708 658l478 -658h-285l-441 632h-42v-632h-233v1544h273q306 0 442 -115q150 -128 150 -338q0 -164 -94 -282t-248 -151zM418 835h74q331 0 331 253q0 237 -322 237h-83v-490z" />
    <glyph glyph-name="S" unicode="S" horiz-adv-x="1194" 
d="M1058 1314l-189 -112q-53 92 -101 120q-50 32 -129 32q-97 0 -161 -55q-64 -54 -64 -136q0 -113 168 -182l154 -63q188 -76 275 -185.5t87 -268.5q0 -213 -142 -352q-143 -140 -355 -140q-201 0 -332 119q-129 119 -161 335l236 52q16 -136 56 -188q72 -100 210 -100
q109 0 181 73t72 185q0 45 -12.5 82.5t-39 69t-68.5 59t-100 52.5l-149 62q-317 134 -317 392q0 174 133 291q133 118 331 118q267 0 417 -260z" />
    <glyph glyph-name="T" unicode="T" horiz-adv-x="988" 
d="M611 1325v-1325h-233v1325h-355v219h942v-219h-354z" />
    <glyph glyph-name="U" unicode="U" horiz-adv-x="1513" 
d="M418 1544v-930q0 -199 65 -291q97 -133 273 -133q177 0 274 133q65 89 65 291v930h233v-994q0 -244 -152 -402q-171 -176 -420 -176t-419 176q-152 158 -152 402v994h233z" />
    <glyph glyph-name="V" unicode="V" horiz-adv-x="1385" 
d="M263 1544l427 -1070l433 1070h255l-693 -1660l-677 1660h255z" />
    <glyph glyph-name="W" unicode="W" horiz-adv-x="2172" 
d="M261 1544l402 -1032l420 1107l402 -1107l427 1032h253l-690 -1642l-397 1094l-414 -1095l-656 1643h253z" />
    <glyph glyph-name="X" unicode="X" horiz-adv-x="1265" 
d="M508 807l-425 737h265l295 -523l310 523h267l-445 -737l467 -807h-261l-342 591l-352 -591h-264z" />
    <glyph glyph-name="Y" unicode="Y" horiz-adv-x="1229" 
d="M497 667l-504 877h268l353 -617l354 617h268l-506 -877v-667h-233v667z" />
    <glyph glyph-name="Z" unicode="Z" horiz-adv-x="1280" 
d="M452 219h741v-219h-1124l758 1325h-634v219h1017z" />
    <glyph glyph-name="bracketleft" unicode="[" horiz-adv-x="732" 
d="M430 1478v-1676h194v-212h-423v2099h423v-211h-194z" />
    <glyph glyph-name="backslash" unicode="\" horiz-adv-x="1061" 
d="M194 1706l883 -2045l-184 -83l-885 2046z" />
    <glyph glyph-name="bracketright" unicode="]" horiz-adv-x="732" 
d="M303 -198v1676h-195v211h423v-2099h-423v212h195z" />
    <glyph glyph-name="asciicircum" unicode="^" 
d="M281 812h-245l391 739h304l392 -739h-246l-298 555z" />
    <glyph glyph-name="underscore" unicode="_" 
d="M0 -129h1158v-210h-1158v210z" />
    <glyph glyph-name="grave" unicode="`" 
d="M197 1454l211 110l276 -364l-124 -76z" />
    <glyph glyph-name="a" unicode="a" horiz-adv-x="1228" 
d="M860 974h226v-974h-226v102q-139 -130 -299 -130q-202 0 -334 146q-131 149 -131 372q0 219 131 365t328 146q170 0 305 -140v113zM326 490q0 -140 75 -228q77 -89 194 -89q125 0 202 86q77 89 77 226t-77 226q-77 87 -200 87q-116 0 -194 -88q-77 -89 -77 -220z" />
    <glyph glyph-name="b" unicode="b" horiz-adv-x="1228" 
d="M367 1689v-828q135 140 306 140q197 0 328 -147q131 -146 131 -364q0 -225 -132 -372q-131 -146 -331 -146q-169 0 -302 130v-102h-225v1689h225zM902 480q0 140 -76 228q-77 90 -193 90q-124 0 -202 -87q-77 -86 -77 -224q0 -142 76 -227q76 -87 200 -87q117 0 194 87
q78 88 78 220z" />
    <glyph glyph-name="c" unicode="c" horiz-adv-x="976" 
d="M900 932v-299q-77 94 -138 129q-60 36 -141 36q-127 0 -211 -89t-84 -223q0 -137 81 -225q82 -88 209 -88q81 0 143 35q60 34 141 132v-297q-137 -71 -274 -71q-226 0 -378 146q-152 147 -152 365t154 368t378 150q144 0 272 -69z" />
    <glyph glyph-name="d" unicode="d" horiz-adv-x="1228" 
d="M860 1689h226v-1689h-226v102q-133 -130 -301 -130q-200 0 -332 146q-131 149 -131 372q0 218 131 364q130 147 327 147q171 0 306 -140v828zM326 490q0 -140 75 -228q77 -89 194 -89q125 0 202 86q77 89 77 226t-77 226q-77 87 -200 87q-116 0 -194 -88
q-77 -89 -77 -220z" />
    <glyph glyph-name="e" unicode="e" horiz-adv-x="1133" 
d="M1029 434h-698q9 -120 78 -191q69 -70 177 -70q84 0 139 40q54 40 123 148l190 -106q-44 -75 -93 -128.5t-105 -88t-121 -50.5t-141 -16q-218 0 -350 140q-132 141 -132 374q0 231 128 374q129 141 342 141q215 0 340 -137q124 -136 124 -377zM798 618q-47 180 -227 180
q-41 0 -77 -12.5t-65.5 -36t-50.5 -56.5t-32 -75h452z" />
    <glyph glyph-name="f" unicode="f" horiz-adv-x="608" 
d="M375 764v-764h-226v764h-80v210h80v376q0 184 64 260q88 106 256 106q60 0 151 -35v-230l-23 12q-73 37 -120 37q-60 0 -81 -43q-21 -42 -21 -162v-321h245v-210h-245z" />
    <glyph glyph-name="g" unicode="g" horiz-adv-x="1226" 
d="M1084 23q0 -69 -4.5 -121.5t-12.5 -92.5q-24 -110 -94 -189q-132 -152 -363 -152q-195 0 -321 105q-130 108 -150 299h226q13 -72 43 -111q70 -91 204 -91q247 0 247 303v136q-134 -137 -309 -137q-199 0 -326 144q-128 146 -128 365q0 213 119 362q128 158 338 158
q184 0 306 -137v110h225v-951zM868 485q0 142 -76 227q-77 87 -197 87q-128 0 -202 -95q-67 -85 -67 -220q0 -133 67 -218q73 -93 202 -93t204 94q69 85 69 218z" />
    <glyph glyph-name="h" unicode="h" horiz-adv-x="1123" 
d="M142 1689h225v-796q120 108 265 108q165 0 264 -107q84 -93 84 -297v-597h-225v576q0 117 -41.5 169.5t-133.5 52.5q-118 0 -166 -73q-47 -74 -47 -254v-471h-225v1689z" />
    <glyph glyph-name="i" unicode="i" horiz-adv-x="510" 
d="M367 974v-974h-225v974h225zM108 1379q0 59 43 102t103 43q61 0 104 -43q43 -42 43 -103t-43 -104q-42 -43 -103 -43t-104 43t-43 105z" />
    <glyph glyph-name="j" unicode="j" horiz-adv-x="510" 
d="M367 974v-1504h-225v1504h225zM108 1379q0 59 43 102t103 43q61 0 104 -43q43 -42 43 -103t-43 -104q-42 -43 -103 -43t-104 43t-43 105z" />
    <glyph glyph-name="k" unicode="k" horiz-adv-x="1020" 
d="M367 1689v-1030l317 315h302l-423 -409l454 -565h-292l-322 411l-36 -36v-375h-225v1689h225z" />
    <glyph glyph-name="l" unicode="l" horiz-adv-x="510" 
d="M367 1689v-1689h-225v1689h225z" />
    <glyph glyph-name="m" unicode="m" horiz-adv-x="1620" 
d="M142 974h225v-90q65 68 111 92q49 25 123 25q165 0 261 -144q106 144 287 144q329 0 329 -399v-602h-226v541q0 140 -34 198q-35 59 -115 59q-93 0 -135.5 -70t-42.5 -225v-503h-226v538q0 260 -150 260q-95 0 -138.5 -71t-43.5 -224v-503h-225v974z" />
    <glyph glyph-name="n" unicode="n" horiz-adv-x="1123" 
d="M142 974h226v-90q118 117 266 117q170 0 265 -107q82 -91 82 -297v-597h-226v544q0 144 -40 199q-39 56 -142 56q-112 0 -159 -74q-46 -73 -46 -255v-470h-226v974z" />
    <glyph glyph-name="o" unicode="o" horiz-adv-x="1231" 
d="M96 494q0 211 151 359t368 148q218 0 370 -149q150 -149 150 -366q0 -219 -151 -367q-152 -147 -373 -147q-219 0 -367 150q-148 148 -148 372zM326 490q0 -146 78 -231q80 -86 211 -86q132 0 211 85t79 227t-79 227q-80 86 -211 86q-129 0 -209 -86t-80 -222z" />
    <glyph glyph-name="p" unicode="p" horiz-adv-x="1228" 
d="M367 -530h-225v1504h225v-106q133 133 302 133q201 0 331 -148q132 -147 132 -371q0 -219 -131 -365q-130 -145 -328 -145q-171 0 -306 137v-639zM902 481q0 140 -76 228q-77 89 -194 89q-124 0 -201 -86t-77 -226q0 -137 77 -226q76 -87 200 -87q117 0 193 88
q78 88 78 220z" />
    <glyph glyph-name="q" unicode="q" horiz-adv-x="1228" 
d="M860 -530v639q-134 -137 -306 -137q-197 0 -327 145q-131 146 -131 365q0 222 131 371q132 148 331 148q169 0 302 -133v106h226v-1504h-226zM326 492q0 -141 76 -229q76 -90 193 -90q124 0 201 86q78 87 78 226q0 137 -77 226q-77 87 -200 87q-116 0 -194 -88
q-77 -89 -77 -218z" />
    <glyph glyph-name="r" unicode="r" horiz-adv-x="766" 
d="M142 974h225v-87q62 65 110 89q49 25 116 25q89 0 186 -58l-103 -206q-64 46 -125 46q-184 0 -184 -278v-505h-225v974z" />
    <glyph glyph-name="s" unicode="s" horiz-adv-x="831" 
d="M708 808l-186 -99q-44 90 -109 90q-31 0 -53 -20.5t-22 -52.5q0 -56 130 -111q179 -77 241 -142t62 -175q0 -141 -104 -236q-101 -90 -244 -90q-245 0 -347 239l192 89q40 -70 61 -89q41 -38 98 -38q114 0 114 104q0 60 -88 112q-34 17 -68 33t-69 33q-98 48 -138 96
q-51 61 -51 157q0 127 87 210q89 83 216 83q187 0 278 -193z" />
    <glyph glyph-name="t" unicode="t" horiz-adv-x="560" 
d="M374 764v-764h-225v764h-96v210h96v357h225v-357h175v-210h-175z" />
    <glyph glyph-name="u" unicode="u" horiz-adv-x="1116" 
d="M367 974v-559q0 -242 191 -242t191 242v559h225v-564q0 -117 -29 -202q-28 -76 -97 -137q-114 -99 -290 -99q-175 0 -289 99q-70 61 -99 137q-28 68 -28 202v564h225z" />
    <glyph glyph-name="v" unicode="v" horiz-adv-x="1029" 
d="M263 974l252 -547l251 547h253l-506 -1041l-502 1041h252z" />
    <glyph glyph-name="w" unicode="w" horiz-adv-x="1585" 
d="M264 974l255 -556l275 645l277 -645l252 556h252l-510 -1047l-271 627l-274 -627l-509 1047h253z" />
    <glyph glyph-name="x" unicode="x" horiz-adv-x="1143" 
d="M444 527l-350 447h268l217 -284l221 284h276l-360 -447l417 -527h-268l-286 364l-293 -364h-275z" />
    <glyph glyph-name="y" unicode="y" horiz-adv-x="1113" 
d="M449 181l-438 793h261l298 -560l278 560h254l-776 -1504h-257z" />
    <glyph glyph-name="z" unicode="z" horiz-adv-x="1113" 
d="M465 212h579v-212h-1025l631 764h-497v210h942z" />
    <glyph glyph-name="braceleft" unicode="{" horiz-adv-x="732" 
d="M628 1501h-28q-90 0 -117 -35t-27 -146v-402q0 -106 -29 -173q-29 -58 -111 -107q140 -84 140 -222v-453q0 -114 27 -150q28 -36 117 -36l28 1v-202h-57l-71 -4q-147 0 -211 79t-64 260v492q0 52 -35 92.5t-95 54.5v193q70 16 100 60t30 131v446q0 171 63.5 248.5
t204.5 77.5l77 -2l58 -2v-201z" />
    <glyph glyph-name="bar" unicode="|" 
d="M463 1544h232v-1929h-232v1929z" />
    <glyph glyph-name="braceright" unicode="}" horiz-adv-x="732" 
d="M105 -222l28 -1q89 0 116 35q28 34 28 147v400q0 107 29 174q29 58 111 107q-140 84 -140 221v455q0 116 -28 150q-29 36 -116 36l-28 -1v202h57l70 4q147 0 211 -79q65 -80 65 -260v-494q0 -52 35 -92.5t95 -54.5v-192q-70 -17 -100 -61t-30 -130v-446
q0 -171 -63.5 -248.5t-204.5 -77.5l-77 3h-58v203z" />
    <glyph glyph-name="asciitilde" unicode="~" horiz-adv-x="1544" 
d="M212 1409l16 35q66 139 139 199t176 60t253 -70q135 -64 212 -64q84 0 115 40l61 76q22 28 41 28q46 0 107 -85q-77 -152 -156 -218q-80 -65 -189 -65q-90 0 -261 78q-130 56 -203 56q-25 0 -59 -15q-35 -14 -45 -29l-64 -89q-20 -26 -39 -26q-45 0 -104 89z" />
    <glyph glyph-name="nonbreakingspace" unicode="&#xa0;" horiz-adv-x="632" 
 />
    <glyph glyph-name="exclamdown" unicode="&#xa1;" horiz-adv-x="679" 
d="M479 1077q0 -57 -41 -98q-40 -40 -98 -40q-57 0 -98 41t-41 99t40 98q41 41 99 41q57 0 98 -41t41 -100zM453 845v-1199h-226v1199h226z" />
    <glyph glyph-name="cent" unicode="&#xa2;" horiz-adv-x="1264" 
d="M755 1479v-194l9 -1q122 -15 220 -65v-300q-40 45 -75.5 75.5t-66.5 47.5q-61 34 -143 34q-127 0 -208 -86q-80 -86 -80 -221q0 -133 79 -215t209 -82q90 0 149 35q60 35 136 131v-312q-60 -25 -117 -41t-112 -24v-199h-171v208q-57 17 -99 35.5t-73 37.5
q-66 45 -116 109q-109 136 -109 320q0 383 397 510v197h171z" />
    <glyph glyph-name="sterling" unicode="&#xa3;" horiz-adv-x="1264" 
d="M519 761h301v-163h-234q26 -102 26 -142q0 -46 -29 -159l15 -5q32 -11 58.5 -20.5t48.5 -17.5q122 -49 178 -49q43 0 75 30q17 16 37.5 45t45.5 72l186 -112q-67 -143 -146 -201q-80 -60 -196 -60q-84 0 -256 59q-167 64 -234 64q-55 0 -87 -26t-72 -110l-200 101
q93 149 148 191q64 51 171 63q24 79 24 143q0 69 -35 134h-264v163h181q-97 193 -97 330q0 199 150 339q152 140 366 140q215 0 353 -141q139 -139 139 -360l-229 -85q0 167 -34 234q-66 133 -230 133q-121 0 -199 -79q-78 -78 -78 -200q0 -102 106 -292q2 -3 4.5 -7.5
t6.5 -11.5z" />
    <glyph glyph-name="currency" unicode="&#xa4;" horiz-adv-x="1264" 
d="M-50 301l227 228q-110 152 -110 325q0 164 110 322l-231 230l128 128l230 -230q160 111 330 111q166 0 324 -108l229 226l127 -128l-227 -226q111 -164 111 -326q0 -165 -109 -322l230 -230l-126 -127l-229 228q-156 -111 -329 -111q-165 0 -331 109l-228 -226zM986 847
q0 153 -103 256q-102 105 -251 105q-146 0 -250 -104q-103 -103 -103 -252q0 -148 103 -251q104 -104 251 -104q146 0 249 103q104 104 104 247z" />
    <glyph glyph-name="yen" unicode="&#xa5;" horiz-adv-x="1264" 
d="M502 703l-93 169h-330v164h240l-279 508h253l337 -617l340 617h253l-280 -508h241v-164h-331l-94 -169h425v-164h-445v-539h-217v539h-443v164h423z" />
    <glyph glyph-name="brokenbar" unicode="&#xa6;" 
d="M463 1544h232v-786h-232v786zM463 355h232v-740h-232v740z" />
    <glyph glyph-name="section" unicode="&#xa7;" horiz-adv-x="1264" 
d="M167 20h219q28 -237 231 -237q97 0 151.5 54.5t54.5 154.5q0 93 -48 137q-48 45 -225 113q-213 83 -288 167t-75 236q0 251 219 349q-180 108 -180 300q0 169 129 291q130 121 312 121q187 0 309 -132q121 -130 121 -338h-214q-17 254 -215 254q-96 0 -158 -59
q-61 -58 -61 -151q0 -126 163 -184l102 -36q220 -79 301 -166t81 -244q0 -119 -50 -202q-49 -82 -167 -155q93 -63 131 -131q39 -71 39 -173q0 -183 -124 -301q-125 -119 -312 -119q-122 0 -222 52q-101 50 -157 140q-58 91 -67 259zM407 649q0 -95 68 -163q69 -66 167 -66
q96 0 164 66q69 66 69 160q0 95 -69 161q-68 66 -165 66q-98 0 -165 -67q-69 -66 -69 -157z" />
    <glyph glyph-name="dieresis" unicode="&#xa8;" 
d="M227 1284q0 58 42 99q42 42 101 42t101 -42q42 -41 42 -100q0 -60 -42 -102q-44 -41 -101 -41q-60 0 -102 42q-41 44 -41 102zM645 1284q0 58 42 99q43 42 101 42q60 0 101 -42q42 -41 42 -100q0 -60 -42 -102q-44 -41 -101 -41q-59 0 -101 42t-42 102z" />
    <glyph glyph-name="copyright" unicode="&#xa9;" horiz-adv-x="1756" 
d="M1186 1181v-202l-25 20q-122 95 -248 95q-135 0 -228 -94q-93 -95 -93 -231t93 -227q95 -92 229 -92q122 0 247 98l25 20v-204q-132 -72 -274 -72q-207 0 -352 139t-145 338q0 201 148 342t359 141q132 0 256 -67zM1679 774q0 -335 -234 -570t-566 -235t-568 236
q-234 235 -234 571q0 186 76 339q77 163 214 276q224 185 503 185q185 0 335 -70q213 -93 343 -295q131 -203 131 -437zM873 1459q-274 0 -470 -202q-197 -203 -197 -482q0 -285 197 -488q196 -202 476 -202q277 0 474 201q196 202 196 488q0 153 -77 316q-76 153 -202 243
q-177 126 -397 126z" />
    <glyph glyph-name="ordfeminine" unicode="&#xaa;" horiz-adv-x="838" 
d="M567 1515h148v-589h-148v57q-86 -74 -181 -74q-126 0 -209 89t-83 224q0 132 82 220t206 88q105 0 185 -78v63zM244 1222q0 -82 45 -134q46 -52 118 -52q75 0 122 50q47 53 47 133q0 79 -47 132q-47 51 -121 51q-72 0 -118 -52q-46 -49 -46 -128z" />
    <glyph glyph-name="guillemotleft" unicode="&#xab;" horiz-adv-x="1179" 
d="M756 495l300 -383l-150 -111l-385 493l385 510l149 -110zM328 495l300 -383l-150 -111l-385 493l385 510l149 -110z" />
    <glyph glyph-name="logicalnot" unicode="&#xac;" 
d="M849 0v402h-772v216h1004v-618h-232z" />
    <glyph glyph-name="softhyphen" unicode="&#xad;" horiz-adv-x="446" 
d="M0 593h446v-196h-446v196z" />
    <glyph glyph-name="registered" unicode="&#xae;" horiz-adv-x="1756" 
d="M957 696l301 -387h-216l-275 367v-367h-177v926h185q194 0 283 -69q99 -80 99 -209q0 -87 -53 -161q-53 -72 -135 -96zM766 824h30q190 0 190 131q0 122 -184 122h-36v-253zM1679 774q0 -335 -234 -570t-566 -235t-568 236q-234 235 -234 571q0 186 76 339
q77 163 214 276q224 185 503 185q185 0 335 -70q213 -93 343 -295q131 -203 131 -437zM873 1459q-274 0 -470 -202q-197 -203 -197 -482q0 -285 197 -488q196 -202 476 -202q277 0 474 201q196 202 196 488q0 153 -77 316q-76 153 -202 243q-177 126 -397 126z" />
    <glyph glyph-name="macron" unicode="&#xaf;" 
d="M229 1343h701v-180h-701v180z" />
    <glyph glyph-name="macron" unicode="&#x2c9;" 
d="M229 1343h701v-180h-701v180z" />
    <glyph glyph-name="degree" unicode="&#xb0;" horiz-adv-x="1313" 
d="M661 1567q125 0 215 -91q90 -90 90 -217q0 -128 -91 -219q-90 -90 -218 -90t-219 90q-90 91 -90 218q0 131 91 219q91 90 222 90zM659 1413q-69 0 -117 -45q-47 -45 -47 -111q0 -70 48 -119t114 -49q68 0 114 49q48 49 48 119q0 65 -47 110q-46 46 -113 46z" />
    <glyph glyph-name="plusminus" unicode="&#xb1;" horiz-adv-x="1264" 
d="M99 710v186h440v432h185v-432h440v-186h-440v-401h-185v401h-440zM99 0v185h1065v-185h-1065z" />
    <glyph glyph-name="twosuperior" unicode="&#xb2;" horiz-adv-x="896" 
d="M393 763h341v-145h-657l338 395q48 57 79.5 97.5t48.5 68.5q35 56 35 99q0 61 -44 102t-109 41q-137 0 -157 -164h-157q36 304 310 304q133 0 221 -82q90 -81 90 -202q0 -74 -41 -148q-20 -36 -60 -89t-103 -123z" />
    <glyph glyph-name="threesuperior" unicode="&#xb3;" horiz-adv-x="896" 
d="M373 1041v132q96 0 126 18q52 31 52 104q0 55 -38 89.5t-99 34.5q-109 0 -131 -123h-157q23 138 92.5 201t198.5 63q128 0 207 -73q81 -74 81 -187q0 -124 -97 -194q110 -68 110 -217q0 -126 -88 -207q-89 -80 -224 -80q-275 0 -304 278h153q23 -137 159 -137
q65 0 107 42q42 43 42 110q0 78 -44 112t-146 34z" />
    <glyph glyph-name="acute" unicode="&#xb4;" 
d="M962 1454l-364 -330l-123 76l275 364z" />
    <glyph glyph-name="mu" unicode="&#xb5;" horiz-adv-x="1116" 
d="M367 -530h-225v1504h225v-564q0 -237 191 -237t191 242v559h225v-564q0 -117 -29 -202q-28 -76 -98 -137q-114 -99 -282 -99q-116 0 -213 51z" />
    <glyph glyph-name="paragraph" unicode="&#xb6;" horiz-adv-x="1264" 
d="M631 -220h-214v995l-26 -1q-158 0 -256 104q-98 107 -98 274q0 392 452 392h716l-128 -216h-61v-1548h-213v1548h-172v-1548z" />
    <glyph glyph-name="periodcentered" unicode="&#xb7;" horiz-adv-x="632" 
d="M177 773q0 56 41 97t98 41t98 -41t41 -98q0 -58 -41 -99q-40 -40 -98 -40q-59 0 -99 40t-40 100z" />
    <glyph glyph-name="cedilla" unicode="&#xb8;" 
d="M787 -199l-239 -306l-146 73l199 309z" />
    <glyph glyph-name="onesuperior" unicode="&#xb9;" horiz-adv-x="896" 
d="M394 1401h-169l88 143h238v-926h-157v783z" />
    <glyph glyph-name="ordmasculine" unicode="&#xba;" horiz-adv-x="840" 
d="M94 1225q0 127 95 216t230 89q137 0 232 -90q95 -89 95 -220q0 -132 -95 -222q-95 -89 -234 -89t-230 91q-93 91 -93 225zM244 1222q0 -85 47 -135.5t128 -50.5t129 49.5t48 133.5q0 42 -12.5 75.5t-35.5 57.5t-55.5 37t-71.5 13q-40 0 -72.5 -13t-56 -36.5t-36 -57
t-12.5 -73.5z" />
    <glyph glyph-name="guillemotright" unicode="&#xbb;" horiz-adv-x="1179" 
d="M424 495l-300 399l150 110l385 -510l-386 -493l-149 111zM852 495l-299 399l149 110l385 -510l-385 -493l-150 111z" />
    <glyph glyph-name="onequarter" unicode="&#xbc;" horiz-adv-x="1981" 
d="M348 1401h-169l88 143h238v-926h-157v783zM1379 1571l109 -62l-884 -1534l-110 66zM1820 269h99v-139h-99v-130h-159v130h-470l629 880v-741zM1661 269v273l-194 -273h194z" />
    <glyph glyph-name="onehalf" unicode="&#xbd;" horiz-adv-x="1981" 
d="M348 1401h-169l88 143h238v-926h-157v783zM1379 1571l109 -62l-884 -1534l-110 66zM1525 145h342v-145h-657l337 396q49 58 81.5 99.5t48.5 67.5q34 52 34 97q0 59 -44 100t-109 41q-138 0 -157 -162h-157q36 304 310 304q133 0 221 -82q90 -81 90 -201q0 -76 -42 -149
q-20 -35 -60.5 -88t-101.5 -123z" />
    <glyph glyph-name="threequarters" unicode="&#xbe;" horiz-adv-x="1981" 
d="M326 1041v132q96 0 126 18q52 31 52 104q0 55 -38 89.5t-99 34.5q-109 0 -131 -123h-157q23 138 92.5 201t198.5 63q128 0 207 -73q81 -74 81 -187q0 -124 -97 -194q110 -68 110 -217q0 -126 -88 -207q-89 -80 -224 -80q-275 0 -304 278h153q23 -137 159 -137
q65 0 107 42q42 43 42 110q0 78 -44 112t-146 34zM1378 1571l109 -62l-884 -1534l-110 66zM1819 269h99v-139h-99v-130h-159v130h-469l628 880v-741zM1660 269v273l-194 -273h194z" />
    <glyph glyph-name="questiondown" unicode="&#xbf;" horiz-adv-x="1003" 
d="M386 468h-226q0 150 80 245q106 121 270 121q142 0 240 -101t98 -246q0 -116 -62 -187q-61 -70 -209 -124q-147 -53 -187 -86q-39 -33 -39 -101q0 -69 42 -109.5t111 -40.5t110 40.5t41 109.5q0 28 -12 84h233q2 -26 3.5 -46t1.5 -35q0 -158 -107 -263t-268 -105
q-164 0 -273 106t-109 265q0 162 109 262q70 64 260 122q130 39 130 126q0 49 -34 83t-84 34q-110 0 -119 -154zM641 1077q0 -57 -41 -98q-40 -40 -98 -40q-57 0 -98 41t-41 99q0 57 41 98t98 41t98 -41t41 -100z" />
    <glyph glyph-name="Agrave" unicode="&#xc0;" horiz-adv-x="1517" 
d="M1092 375h-661l-172 -375h-251l764 1641l737 -1641h-255zM997 594l-229 525l-240 -525h469zM407 1959l198 139l320 -322l-111 -93z" />
    <glyph glyph-name="Aacute" unicode="&#xc1;" horiz-adv-x="1517" 
d="M1092 375h-661l-172 -375h-251l764 1641l737 -1641h-255zM997 594l-229 525l-240 -525h469zM1126 1959l-408 -276l-111 93l321 322z" />
    <glyph glyph-name="Acircumflex" unicode="&#xc2;" horiz-adv-x="1517" 
d="M1092 375h-661l-172 -375h-251l764 1641l737 -1641h-255zM997 594l-229 525l-240 -525h469zM421 1802l351 321l356 -321l-154 -119l-202 190l-199 -190z" />
    <glyph glyph-name="Atilde" unicode="&#xc3;" horiz-adv-x="1517" 
d="M1092 375h-661l-172 -375h-251l764 1641l737 -1641h-255zM997 594l-229 525l-240 -525h469zM492 1699l-131 111l29 41q28 40 54 67.5t53 45t56 25t63 7.5q78 0 181 -52q104 -53 134 -53q56 0 124 108l127 -106q-96 -192 -260 -192q-56 0 -183 56q-91 46 -136 46
q-55 0 -111 -104z" />
    <glyph glyph-name="Adieresis" unicode="&#xc4;" horiz-adv-x="1517" 
d="M1092 375h-661l-172 -375h-251l764 1641l737 -1641h-255zM997 594l-229 525l-240 -525h469zM406 1844q0 58 42 100t100 42q60 0 101 -42q42 -42 42 -102q0 -59 -42 -101q-41 -42 -100 -42q-60 0 -102 42q-41 44 -41 103zM855 1844q0 58 42 100t101 42t101 -42t42 -102
q0 -59 -42 -101t-101 -42q-60 0 -102 42q-41 44 -41 103z" />
    <glyph glyph-name="Aring" unicode="&#xc5;" horiz-adv-x="1517" 
d="M1092 375h-661l-172 -375h-251l764 1641l737 -1641h-255zM997 594l-229 525l-240 -525h469zM556 1906q0 88 64 151q64 64 153 64q91 0 154 -64q64 -64 64 -154t-64 -154q-63 -64 -153 -64q-91 0 -155 64q-63 64 -63 157zM675 1904q0 -43 28.5 -71.5t70.5 -28.5t70.5 28.5
t28.5 70.5t-28.5 70.5t-70.5 28.5q-21 0 -39 -8t-31.5 -21.5t-21 -31.5t-7.5 -37z" />
    <glyph glyph-name="AE" unicode="&#xc6;" horiz-adv-x="2145" 
d="M1103 369h-656l-169 -369h-255l742 1544h683l97 -219h-615l163 -374h598l98 -219h-599l220 -513h617l94 -219h-856zM1010 588l-221 506l-238 -506h459z" />
    <glyph glyph-name="Ccedilla" unicode="&#xc7;" horiz-adv-x="1435" 
d="M1326 1461v-276q-202 169 -418 169q-238 0 -401 -171q-164 -170 -164 -416q0 -243 164 -410t402 -167q123 0 209 40q48 20 99.5 54t108.5 82v-281q-200 -113 -420 -113q-331 0 -565 231q-233 233 -233 562q0 295 195 526q240 283 621 283q208 0 402 -113zM1010 -211
l-262 -308l-146 77l210 319z" />
    <glyph glyph-name="Egrave" unicode="&#xc8;" 
d="M1037 1325h-619v-371h601v-219h-601v-516h619v-219h-852v1544h852v-219zM307 1959l198 139l320 -322l-111 -93z" />
    <glyph glyph-name="Eacute" unicode="&#xc9;" 
d="M1037 1325h-619v-371h601v-219h-601v-516h619v-219h-852v1544h852v-219zM962 1959l-408 -276l-111 93l321 322z" />
    <glyph glyph-name="Ecircumflex" unicode="&#xca;" 
d="M1037 1325h-619v-371h601v-219h-601v-516h619v-219h-852v1544h852v-219zM260 1802l351 321l356 -321l-154 -119l-202 190l-199 -190z" />
    <glyph glyph-name="Edieresis" unicode="&#xcb;" 
d="M1037 1325h-619v-371h601v-219h-601v-516h619v-219h-852v1544h852v-219zM251 1844q0 58 42 100t100 42q60 0 101 -42q42 -42 42 -102q0 -59 -42 -101q-41 -42 -100 -42q-60 0 -102 42q-41 44 -41 103zM700 1844q0 58 42 100t101 42t101 -42t42 -102q0 -59 -42 -101
t-101 -42q-60 0 -102 42q-41 44 -41 103z" />
    <glyph glyph-name="Igrave" unicode="&#xcc;" horiz-adv-x="604" 
d="M418 1544v-1544h-233v1544h233zM-72 1959l189 139l305 -322l-111 -93z" />
    <glyph glyph-name="Iacute" unicode="&#xcd;" horiz-adv-x="604" 
d="M418 1544v-1544h-233v1544h233zM677 1959l-384 -276l-111 93l305 322z" />
    <glyph glyph-name="Icircumflex" unicode="&#xce;" horiz-adv-x="604" 
d="M418 1544v-1544h-233v1544h233zM-51 1802l351 321l356 -321l-154 -119l-202 190l-199 -190z" />
    <glyph glyph-name="Idieresis" unicode="&#xcf;" horiz-adv-x="604" 
d="M418 1544v-1544h-233v1544h233zM-29 1844q0 56 41 100q42 42 101 42t101 -42t42 -102q0 -59 -42 -101t-101 -42q-61 0 -101 42q-41 44 -41 103zM348 1844q0 58 42 100q43 42 101 42q59 0 101 -42t42 -102q0 -59 -42 -101t-101 -42t-101 42t-42 103z" />
    <glyph glyph-name="Eth" unicode="&#xd0;" horiz-adv-x="1487" 
d="M185 0v703h-139v200h139v641h324q233 0 368 -46q145 -45 263 -153q239 -218 239 -573q0 -356 -249 -576q-125 -110 -262 -153q-128 -43 -363 -43h-320zM418 219h105q157 0 261 33q104 34 188 110q172 157 172 409q0 255 -170 413q-153 141 -451 141h-105v-422h332v-200
h-332v-484z" />
    <glyph glyph-name="Ntilde" unicode="&#xd1;" horiz-adv-x="1729" 
d="M185 0v1649l1126 -1178v1073h233v-1638l-1126 1175v-1081h-233zM580 1699l-131 111l29 41q28 40 54 67.5t53 45t56 25t63 7.5q78 0 181 -52q104 -53 134 -53q56 0 124 108l127 -106q-96 -192 -260 -192q-56 0 -183 56q-91 46 -136 46q-55 0 -111 -104z" />
    <glyph glyph-name="Ograve" unicode="&#xd2;" horiz-adv-x="1830" 
d="M108 779q0 326 239 560q238 234 572 234q330 0 566 -236q237 -236 237 -567q0 -333 -238 -565q-239 -233 -577 -233q-299 0 -537 207q-262 229 -262 600zM343 776q0 -256 172 -421q171 -165 395 -165q243 0 410 168q167 170 167 414q0 247 -165 414q-164 168 -406 168
q-241 0 -407 -168q-166 -166 -166 -410zM581 1959l198 139l320 -322l-111 -93z" />
    <glyph glyph-name="Oacute" unicode="&#xd3;" horiz-adv-x="1830" 
d="M108 779q0 326 239 560q238 234 572 234q330 0 566 -236q237 -236 237 -567q0 -333 -238 -565q-239 -233 -577 -233q-299 0 -537 207q-262 229 -262 600zM343 776q0 -256 172 -421q171 -165 395 -165q243 0 410 168q167 170 167 414q0 247 -165 414q-164 168 -406 168
q-241 0 -407 -168q-166 -166 -166 -410zM1270 1959l-408 -276l-111 93l321 322z" />
    <glyph glyph-name="Ocircumflex" unicode="&#xd4;" horiz-adv-x="1830" 
d="M108 779q0 326 239 560q238 234 572 234q330 0 566 -236q237 -236 237 -567q0 -333 -238 -565q-239 -233 -577 -233q-299 0 -537 207q-262 229 -262 600zM343 776q0 -256 172 -421q171 -165 395 -165q243 0 410 168q167 170 167 414q0 247 -165 414q-164 168 -406 168
q-241 0 -407 -168q-166 -166 -166 -410zM569 1802l351 321l356 -321l-154 -119l-202 190l-199 -190z" />
    <glyph glyph-name="Otilde" unicode="&#xd5;" horiz-adv-x="1830" 
d="M108 779q0 326 239 560q238 234 572 234q330 0 566 -236q237 -236 237 -567q0 -333 -238 -565q-239 -233 -577 -233q-299 0 -537 207q-262 229 -262 600zM343 776q0 -256 172 -421q171 -165 395 -165q243 0 410 168q167 170 167 414q0 247 -165 414q-164 168 -406 168
q-241 0 -407 -168q-166 -166 -166 -410zM611 1699l-131 111l29 41q28 40 54 67.5t53 45t56 25t63 7.5q78 0 181 -52q104 -53 134 -53q56 0 124 108l127 -106q-96 -192 -260 -192q-56 0 -183 56q-91 46 -136 46q-55 0 -111 -104z" />
    <glyph glyph-name="Odieresis" unicode="&#xd6;" horiz-adv-x="1830" 
d="M108 779q0 326 239 560q238 234 572 234q330 0 566 -236q237 -236 237 -567q0 -333 -238 -565q-239 -233 -577 -233q-299 0 -537 207q-262 229 -262 600zM343 776q0 -256 172 -421q171 -165 395 -165q243 0 410 168q167 170 167 414q0 247 -165 414q-164 168 -406 168
q-241 0 -407 -168q-166 -166 -166 -410zM550 1844q0 58 42 100t100 42q60 0 101 -42q42 -42 42 -102q0 -59 -42 -101q-41 -42 -100 -42q-60 0 -102 42q-41 44 -41 103zM999 1844q0 58 42 100t101 42t101 -42t42 -102q0 -59 -42 -101t-101 -42q-60 0 -102 42q-41 44 -41 103z
" />
    <glyph glyph-name="multiply" unicode="&#xd7;" horiz-adv-x="1264" 
d="M175 1133l127 127l329 -330l330 330l127 -127l-330 -330l330 -330l-127 -126l-330 329l-329 -329l-127 126l330 330z" />
    <glyph glyph-name="Oslash" unicode="&#xd8;" horiz-adv-x="1828" 
d="M1401 1411l167 170l134 -133l-165 -169q183 -228 183 -511q0 -328 -237 -562t-569 -234q-277 0 -511 177l-166 -165l-128 131l161 166q-162 216 -162 485q0 346 245 579q240 228 567 228q260 0 481 -162zM1238 1257q-145 97 -319 97q-247 0 -412 -169
q-164 -170 -164 -422q0 -165 97 -322zM1372 1126l-803 -819q169 -117 348 -117q236 0 402 169t166 412q0 191 -113 355z" />
    <glyph glyph-name="Ugrave" unicode="&#xd9;" horiz-adv-x="1513" 
d="M418 1544v-930q0 -199 65 -291q97 -133 273 -133q177 0 274 133q65 89 65 291v930h233v-994q0 -244 -152 -402q-171 -176 -420 -176t-419 176q-152 158 -152 402v994h233zM419 1959l198 139l320 -322l-111 -93z" />
    <glyph glyph-name="Uacute" unicode="&#xda;" horiz-adv-x="1513" 
d="M418 1544v-930q0 -199 65 -291q97 -133 273 -133q177 0 274 133q65 89 65 291v930h233v-994q0 -244 -152 -402q-171 -176 -420 -176t-419 176q-152 158 -152 402v994h233zM1110 1959l-408 -276l-111 93l321 322z" />
    <glyph glyph-name="Ucircumflex" unicode="&#xdb;" horiz-adv-x="1513" 
d="M418 1544v-930q0 -199 65 -291q97 -133 273 -133q177 0 274 133q65 89 65 291v930h233v-994q0 -244 -152 -402q-171 -176 -420 -176t-419 176q-152 158 -152 402v994h233zM403 1802l351 321l356 -321l-154 -119l-202 190l-199 -190z" />
    <glyph glyph-name="Udieresis" unicode="&#xdc;" horiz-adv-x="1513" 
d="M418 1544v-930q0 -199 65 -291q97 -133 273 -133q177 0 274 133q65 89 65 291v930h233v-994q0 -244 -152 -402q-171 -176 -420 -176t-419 176q-152 158 -152 402v994h233zM387 1844q0 58 42 100t100 42q60 0 101 -42q42 -42 42 -102q0 -59 -42 -101q-41 -42 -100 -42
q-60 0 -102 42q-41 44 -41 103zM836 1844q0 58 42 100t101 42t101 -42t42 -102q0 -59 -42 -101t-101 -42q-60 0 -102 42q-41 44 -41 103z" />
    <glyph glyph-name="Yacute" unicode="&#xdd;" horiz-adv-x="1229" 
d="M497 667l-504 877h268l353 -617l354 617h268l-506 -877v-667h-233v667zM1019 1959l-408 -276l-111 93l321 322z" />
    <glyph glyph-name="Thorn" unicode="&#xde;" horiz-adv-x="1106" 
d="M418 411v-411h-233v1544h233v-216h31q203 0 293 -28q97 -25 176 -101q133 -130 133 -329q0 -211 -142 -335t-383 -124h-108zM418 627h87q321 0 321 247q0 239 -331 239h-77v-486z" />
    <glyph glyph-name="germandbls" unicode="&#xdf;" horiz-adv-x="1274" 
d="M142 0v774h-80v200h80v247q0 239 114 361q126 134 347 134q198 0 327 -123q130 -121 130 -309q0 -198 -165 -310q129 -57 206 -182t77 -275q0 -280 -245 -447q-152 -102 -368 -102v216q174 0 277 94q106 94 106 245q0 165 -125 252q-80 54 -258 72v207q134 0 203 62.5
t69 177.5q0 96 -65 158q-64 61 -168 61q-121 0 -176.5 -67.5t-55.5 -212.5l-4 -123v-1110h-226z" />
    <glyph glyph-name="agrave" unicode="&#xe0;" horiz-adv-x="1228" 
d="M860 974h226v-974h-226v102q-139 -130 -299 -130q-202 0 -334 146q-131 149 -131 372q0 219 131 365t328 146q170 0 305 -140v113zM326 490q0 -140 75 -228q77 -89 194 -89q125 0 202 86q77 89 77 226t-77 226q-77 87 -200 87q-116 0 -194 -88q-77 -89 -77 -220z
M293 1454l211 110l276 -364l-124 -76z" />
    <glyph glyph-name="aacute" unicode="&#xe1;" horiz-adv-x="1228" 
d="M860 974h226v-974h-226v102q-139 -130 -299 -130q-202 0 -334 146q-131 149 -131 372q0 219 131 365t328 146q170 0 305 -140v113zM326 490q0 -140 75 -228q77 -89 194 -89q125 0 202 86q77 89 77 226t-77 226q-77 87 -200 87q-116 0 -194 -88q-77 -89 -77 -220z
M959 1454l-364 -330l-123 76l275 364z" />
    <glyph glyph-name="acircumflex" unicode="&#xe2;" horiz-adv-x="1228" 
d="M860 974h226v-974h-226v102q-139 -130 -299 -130q-202 0 -334 146q-131 149 -131 372q0 219 131 365t328 146q170 0 305 -140v113zM326 490q0 -140 75 -228q77 -89 194 -89q125 0 202 86q77 89 77 226t-77 226q-77 87 -200 87q-116 0 -194 -88q-77 -89 -77 -220z
M276 1243l351 321l356 -321l-154 -119l-202 190l-199 -190z" />
    <glyph glyph-name="atilde" unicode="&#xe3;" horiz-adv-x="1228" 
d="M860 974h226v-974h-226v102q-139 -130 -299 -130q-202 0 -334 146q-131 149 -131 372q0 219 131 365t328 146q170 0 305 -140v113zM326 490q0 -140 75 -228q77 -89 194 -89q125 0 202 86q77 89 77 226t-77 226q-77 87 -200 87q-116 0 -194 -88q-77 -89 -77 -220z
M350 1140l-131 111l29 41q28 40 54 67.5t53 45t56 25t63 7.5q78 0 181 -52q104 -53 134 -53q56 0 124 108l127 -106q-96 -192 -260 -192q-56 0 -183 56q-91 46 -136 46q-55 0 -111 -104z" />
    <glyph glyph-name="adieresis" unicode="&#xe4;" horiz-adv-x="1228" 
d="M860 974h226v-974h-226v102q-139 -130 -299 -130q-202 0 -334 146q-131 149 -131 372q0 219 131 365t328 146q170 0 305 -140v113zM326 490q0 -140 75 -228q77 -89 194 -89q125 0 202 86q77 89 77 226t-77 226q-77 87 -200 87q-116 0 -194 -88q-77 -89 -77 -220z
M269 1284q0 58 42 99q42 42 101 42t101 -42q42 -41 42 -100q0 -60 -42 -102q-44 -41 -101 -41q-60 0 -102 42q-41 44 -41 102zM687 1284q0 58 42 99q43 42 101 42q60 0 101 -42q42 -41 42 -100q0 -60 -42 -102q-44 -41 -101 -41q-59 0 -101 42t-42 102z" />
    <glyph glyph-name="aring" unicode="&#xe5;" horiz-adv-x="1228" 
d="M860 974h226v-974h-226v102q-139 -130 -299 -130q-202 0 -334 146q-131 149 -131 372q0 219 131 365t328 146q170 0 305 -140v113zM326 490q0 -140 75 -228q77 -89 194 -89q125 0 202 86q77 89 77 226t-77 226q-77 87 -200 87q-116 0 -194 -88q-77 -89 -77 -220z
M403 1345q0 88 64 151q64 64 153 64q91 0 154 -64q64 -64 64 -154t-64 -154q-63 -64 -153 -64q-91 0 -155 64q-63 64 -63 157zM522 1343q0 -43 28.5 -71.5t70.5 -28.5t70.5 28.5t28.5 70.5t-28.5 70.5t-70.5 28.5q-21 0 -39 -8t-31.5 -21.5t-21 -31.5t-7.5 -37z" />
    <glyph glyph-name="ae" unicode="&#xe6;" horiz-adv-x="1763" 
d="M1663 437h-702q11 -118 82 -192q70 -72 176 -72q154 0 255 195l194 -108q-32 -61 -69 -107t-80 -77q-143 -105 -311 -105q-196 0 -353 156q-122 -156 -359 -156q-178 0 -289 90t-111 235q0 149 106 240q107 92 279 92q123 0 254 -66q0 132 -55 184q-56 53 -188 53
q-127 0 -260 -37v209q174 30 282 30q238 0 342 -137q131 137 340 137q213 0 341 -137t128 -363zM1427 619q-41 179 -219 179q-181 0 -232 -179h451zM314 300q0 -57 56 -95q59 -38 142 -38q89 0 149 39q60 40 60 99q0 52 -62 90t-149 38q-82 0 -139 -39t-57 -94z" />
    <glyph glyph-name="ccedilla" unicode="&#xe7;" horiz-adv-x="976" 
d="M900 932v-299q-77 94 -138 129q-60 36 -141 36q-127 0 -211 -89t-84 -223q0 -137 81 -225q82 -88 209 -88q81 0 143 35q60 34 141 132v-297q-137 -71 -274 -71q-226 0 -378 146q-152 147 -152 365t154 368t378 150q144 0 272 -69zM714 -199l-239 -306l-146 73l199 309z
" />
    <glyph glyph-name="egrave" unicode="&#xe8;" horiz-adv-x="1133" 
d="M1029 434h-698q9 -120 78 -191q69 -70 177 -70q84 0 139 40q54 40 123 148l190 -106q-44 -75 -93 -128.5t-105 -88t-121 -50.5t-141 -16q-218 0 -350 140q-132 141 -132 374q0 231 128 374q129 141 342 141q215 0 340 -137q124 -136 124 -377zM798 618q-47 180 -227 180
q-41 0 -77 -12.5t-65.5 -36t-50.5 -56.5t-32 -75h452zM246 1454l211 110l276 -364l-124 -76z" />
    <glyph glyph-name="eacute" unicode="&#xe9;" horiz-adv-x="1133" 
d="M1029 434h-698q9 -120 78 -191q69 -70 177 -70q84 0 139 40q54 40 123 148l190 -106q-44 -75 -93 -128.5t-105 -88t-121 -50.5t-141 -16q-218 0 -350 140q-132 141 -132 374q0 231 128 374q129 141 342 141q215 0 340 -137q124 -136 124 -377zM798 618q-47 180 -227 180
q-41 0 -77 -12.5t-65.5 -36t-50.5 -56.5t-32 -75h452zM904 1454l-364 -330l-123 76l275 364z" />
    <glyph glyph-name="ecircumflex" unicode="&#xea;" horiz-adv-x="1133" 
d="M1029 434h-698q9 -120 78 -191q69 -70 177 -70q84 0 139 40q54 40 123 148l190 -106q-44 -75 -93 -128.5t-105 -88t-121 -50.5t-141 -16q-218 0 -350 140q-132 141 -132 374q0 231 128 374q129 141 342 141q215 0 340 -137q124 -136 124 -377zM798 618q-47 180 -227 180
q-41 0 -77 -12.5t-65.5 -36t-50.5 -56.5t-32 -75h452zM222 1243l351 321l356 -321l-154 -119l-202 190l-199 -190z" />
    <glyph glyph-name="edieresis" unicode="&#xeb;" horiz-adv-x="1133" 
d="M1029 434h-698q9 -120 78 -191q69 -70 177 -70q84 0 139 40q54 40 123 148l190 -106q-44 -75 -93 -128.5t-105 -88t-121 -50.5t-141 -16q-218 0 -350 140q-132 141 -132 374q0 231 128 374q129 141 342 141q215 0 340 -137q124 -136 124 -377zM798 618q-47 180 -227 180
q-41 0 -77 -12.5t-65.5 -36t-50.5 -56.5t-32 -75h452zM223 1284q0 58 42 99q42 42 101 42t101 -42q42 -41 42 -100q0 -60 -42 -102q-44 -41 -101 -41q-60 0 -102 42q-41 44 -41 102zM641 1284q0 58 42 99q43 42 101 42q60 0 101 -42q42 -41 42 -100q0 -60 -42 -102
q-44 -41 -101 -41q-59 0 -101 42t-42 102z" />
    <glyph glyph-name="igrave" unicode="&#xec;" horiz-adv-x="510" 
d="M367 974v-974h-225v974h225zM-96 1454l203 110l252 -364l-124 -76z" />
    <glyph glyph-name="iacute" unicode="&#xed;" horiz-adv-x="510" 
d="M367 974v-974h-225v974h225zM607 1454l-332 -330l-124 76l253 364z" />
    <glyph glyph-name="icircumflex" unicode="&#xee;" horiz-adv-x="510" 
d="M367 974v-974h-225v974h225zM-82 1243l335 321l340 -321l-154 -119l-186 190l-184 -190z" />
    <glyph glyph-name="idieresis" unicode="&#xef;" horiz-adv-x="510" 
d="M367 974v-974h-225v974h225zM-68 1284q0 58 42 99q40 42 100 42q59 0 101 -42q42 -41 42 -100q0 -60 -42 -102q-44 -41 -101 -41q-61 0 -101 42q-41 44 -41 102zM294 1284q0 58 42 99q42 42 101 42t101 -42q42 -41 42 -100q0 -60 -42 -102q-44 -41 -101 -41
q-60 0 -102 42q-41 44 -41 102z" />
    <glyph glyph-name="eth" unicode="&#xf0;" horiz-adv-x="1231" 
d="M127 1566l92 140q67 -23 137.5 -57t145.5 -80l45 -27l236 124l79 -130l-187 -100q216 -200 338 -448q122 -255 122 -484q0 -231 -146 -383q-146 -149 -370 -149q-222 0 -373 147q-150 147 -150 364q0 218 150 367q152 149 372 149q82 0 157 -22q-61 109 -131 200.5
t-151 166.5l-240 -129l-73 131l190 100q-27 16 -36 21l-72 36l-81 42q-12 6 -54 21zM326 489q0 -145 78 -230q80 -86 211 -86q132 0 211 85t79 227q0 141 -79 226q-80 86 -211 86q-129 0 -209 -86t-80 -222z" />
    <glyph glyph-name="ntilde" unicode="&#xf1;" horiz-adv-x="1123" 
d="M142 974h226v-90q118 117 266 117q170 0 265 -107q82 -91 82 -297v-597h-226v544q0 144 -40 199q-39 56 -142 56q-112 0 -159 -74q-46 -73 -46 -255v-470h-226v974zM268 1140l-131 111l29 41q28 40 54 67.5t53 45t56 25t63 7.5q78 0 181 -52q104 -53 134 -53
q56 0 124 108l127 -106q-96 -192 -260 -192q-56 0 -183 56q-91 46 -136 46q-55 0 -111 -104z" />
    <glyph glyph-name="ograve" unicode="&#xf2;" horiz-adv-x="1231" 
d="M96 494q0 211 151 359t368 148q218 0 370 -149q150 -149 150 -366q0 -219 -151 -367q-152 -147 -373 -147q-219 0 -367 150q-148 148 -148 372zM326 490q0 -146 78 -231q80 -86 211 -86q132 0 211 85t79 227t-79 227q-80 86 -211 86q-129 0 -209 -86t-80 -222zM295 1454
l211 110l276 -364l-124 -76z" />
    <glyph glyph-name="oacute" unicode="&#xf3;" horiz-adv-x="1231" 
d="M96 494q0 211 151 359t368 148q218 0 370 -149q150 -149 150 -366q0 -219 -151 -367q-152 -147 -373 -147q-219 0 -367 150q-148 148 -148 372zM326 490q0 -146 78 -231q80 -86 211 -86q132 0 211 85t79 227t-79 227q-80 86 -211 86q-129 0 -209 -86t-80 -222zM953 1454
l-364 -330l-123 76l275 364z" />
    <glyph glyph-name="ocircumflex" unicode="&#xf4;" horiz-adv-x="1231" 
d="M96 494q0 211 151 359t368 148q218 0 370 -149q150 -149 150 -366q0 -219 -151 -367q-152 -147 -373 -147q-219 0 -367 150q-148 148 -148 372zM326 490q0 -146 78 -231q80 -86 211 -86q132 0 211 85t79 227t-79 227q-80 86 -211 86q-129 0 -209 -86t-80 -222zM262 1243
l351 321l356 -321l-154 -119l-202 190l-199 -190z" />
    <glyph glyph-name="otilde" unicode="&#xf5;" horiz-adv-x="1231" 
d="M96 494q0 211 151 359t368 148q218 0 370 -149q150 -149 150 -366q0 -219 -151 -367q-152 -147 -373 -147q-219 0 -367 150q-148 148 -148 372zM326 490q0 -146 78 -231q80 -86 211 -86q132 0 211 85t79 227t-79 227q-80 86 -211 86q-129 0 -209 -86t-80 -222zM359 1140
l-131 111l29 41q28 40 54 67.5t53 45t56 25t63 7.5q78 0 181 -52q104 -53 134 -53q56 0 124 108l127 -106q-96 -192 -260 -192q-56 0 -183 56q-91 46 -136 46q-55 0 -111 -104z" />
    <glyph glyph-name="odieresis" unicode="&#xf6;" horiz-adv-x="1231" 
d="M96 494q0 211 151 359t368 148q218 0 370 -149q150 -149 150 -366q0 -219 -151 -367q-152 -147 -373 -147q-219 0 -367 150q-148 148 -148 372zM326 490q0 -146 78 -231q80 -86 211 -86q132 0 211 85t79 227t-79 227q-80 86 -211 86q-129 0 -209 -86t-80 -222zM263 1284
q0 58 42 99q42 42 101 42t101 -42q42 -41 42 -100q0 -60 -42 -102q-44 -41 -101 -41q-60 0 -102 42q-41 44 -41 102zM681 1284q0 58 42 99q43 42 101 42q60 0 101 -42q42 -41 42 -100q0 -60 -42 -102q-44 -41 -101 -41q-59 0 -101 42t-42 102z" />
    <glyph glyph-name="divide" unicode="&#xf7;" horiz-adv-x="1264" 
d="M99 710v186h1065v-186h-1065zM502 459q0 52 38 90q41 38 92 38q53 0 91 -38t38 -92t-38 -92t-91 -38q-54 0 -92 38q-38 41 -38 94zM502 1151q0 52 38 90q41 38 92 38q53 0 91 -38t38 -92t-38 -92t-91 -38q-54 0 -92 38q-38 41 -38 94z" />
    <glyph glyph-name="oslash" unicode="&#xf8;" horiz-adv-x="1231" 
d="M921 906l154 152l102 -108l-150 -147q109 -145 109 -319q0 -216 -151 -364q-148 -148 -366 -148q-184 0 -322 102l-148 -143l-103 104l147 146q-97 142 -97 308q0 215 151 363q152 149 369 149q162 0 305 -95zM758 752q-61 31 -141 31q-133 0 -212 -82t-79 -218
q0 -80 31 -145zM866 650l-408 -423q73 -40 158 -40q130 0 210 81q79 82 79 216q0 88 -39 166z" />
    <glyph glyph-name="ugrave" unicode="&#xf9;" horiz-adv-x="1116" 
d="M367 974v-559q0 -242 191 -242t191 242v559h225v-564q0 -117 -29 -202q-28 -76 -97 -137q-114 -99 -290 -99q-175 0 -289 99q-70 61 -99 137q-28 68 -28 202v564h225zM222 1454l211 110l276 -364l-124 -76z" />
    <glyph glyph-name="uacute" unicode="&#xfa;" horiz-adv-x="1116" 
d="M367 974v-559q0 -242 191 -242t191 242v559h225v-564q0 -117 -29 -202q-28 -76 -97 -137q-114 -99 -290 -99q-175 0 -289 99q-70 61 -99 137q-28 68 -28 202v564h225zM911 1454l-364 -330l-123 76l275 364z" />
    <glyph glyph-name="ucircumflex" unicode="&#xfb;" horiz-adv-x="1116" 
d="M367 974v-559q0 -242 191 -242t191 242v559h225v-564q0 -117 -29 -202q-28 -76 -97 -137q-114 -99 -290 -99q-175 0 -289 99q-70 61 -99 137q-28 68 -28 202v564h225zM206 1243l351 321l356 -321l-154 -119l-202 190l-199 -190z" />
    <glyph glyph-name="udieresis" unicode="&#xfc;" horiz-adv-x="1116" 
d="M367 974v-559q0 -242 191 -242t191 242v559h225v-564q0 -117 -29 -202q-28 -76 -97 -137q-114 -99 -290 -99q-175 0 -289 99q-70 61 -99 137q-28 68 -28 202v564h225zM207 1284q0 58 42 99q42 42 101 42t101 -42q42 -41 42 -100q0 -60 -42 -102q-44 -41 -101 -41
q-60 0 -102 42q-41 44 -41 102zM625 1284q0 58 42 99q43 42 101 42q60 0 101 -42q42 -41 42 -100q0 -60 -42 -102q-44 -41 -101 -41q-59 0 -101 42t-42 102z" />
    <glyph glyph-name="yacute" unicode="&#xfd;" horiz-adv-x="1113" 
d="M449 181l-438 793h261l298 -560l278 560h254l-776 -1504h-257zM940 1454l-364 -330l-123 76l275 364z" />
    <glyph glyph-name="thorn" unicode="&#xfe;" horiz-adv-x="1228" 
d="M367 -530h-225v2219h225v-821q133 133 302 133q201 0 331 -148q132 -147 132 -371q0 -219 -131 -365q-130 -145 -328 -145q-171 0 -306 137v-639zM902 481q0 140 -76 228q-77 89 -194 89q-124 0 -201 -86t-77 -226q0 -137 77 -226q76 -87 200 -87q117 0 193 88
q78 88 78 220z" />
    <glyph glyph-name="ydieresis" unicode="&#xff;" horiz-adv-x="1113" 
d="M449 181l-438 793h261l298 -560l278 560h254l-776 -1504h-257zM205 1284q0 58 42 99q42 42 101 42t101 -42q42 -41 42 -100q0 -60 -42 -102q-44 -41 -101 -41q-60 0 -102 42q-41 44 -41 102zM623 1284q0 58 42 99q43 42 101 42q60 0 101 -42q42 -41 42 -100
q0 -60 -42 -102q-44 -41 -101 -41q-59 0 -101 42t-42 102z" />
    <glyph glyph-name="Amacron" unicode="&#x100;" horiz-adv-x="1517" 
d="M1092 375h-661l-172 -375h-251l764 1641l737 -1641h-255zM997 594l-229 525l-240 -525h469zM417 1907h701v-180h-701v180z" />
    <glyph glyph-name="amacron" unicode="&#x101;" horiz-adv-x="1228" 
d="M860 974h226v-974h-226v102q-139 -130 -299 -130q-202 0 -334 146q-131 149 -131 372q0 219 131 365t328 146q170 0 305 -140v113zM326 490q0 -140 75 -228q77 -89 194 -89q125 0 202 86q77 89 77 226t-77 226q-77 87 -200 87q-116 0 -194 -88q-77 -89 -77 -220z
M277 1343h701v-180h-701v180z" />
    <glyph glyph-name="Abreve" unicode="&#x102;" horiz-adv-x="1517" 
d="M1092 375h-661l-172 -375h-251l764 1641l737 -1641h-255zM997 594l-229 525l-240 -525h469zM408 2026h185q23 -158 174 -158q150 0 173 158h185q-15 -167 -106.5 -251t-256.5 -84q-153 0 -248 89q-94 88 -106 246z" />
    <glyph glyph-name="abreve" unicode="&#x103;" horiz-adv-x="1228" 
d="M860 974h226v-974h-226v102q-139 -130 -299 -130q-202 0 -334 146q-131 149 -131 372q0 219 131 365t328 146q170 0 305 -140v113zM326 490q0 -140 75 -228q77 -89 194 -89q125 0 202 86q77 89 77 226t-77 226q-77 87 -200 87q-116 0 -194 -88q-77 -89 -77 -220z
M266 1462h185q22 -157 174 -157q151 0 173 157h185q-15 -166 -106.5 -250.5t-256.5 -84.5q-153 0 -248 89q-94 88 -106 246z" />
    <glyph glyph-name="Aogonek" unicode="&#x104;" horiz-adv-x="1517" 
d="M1092 375h-661l-172 -375h-251l764 1641l737 -1641h-255zM997 594l-229 525l-240 -525h469zM1256 0h196q-194 -129 -194 -224q0 -82 101 -82q29 0 64.5 5t80.5 15l-23 -166q-79 -49 -172 -49q-110 0 -183 61q-73 58 -73 151q0 90 46 151q46 66 157 138z" />
    <glyph glyph-name="aogonek" unicode="&#x105;" horiz-adv-x="1228" 
d="M860 974h226v-974h-226v102q-139 -130 -299 -130q-202 0 -334 146q-131 149 -131 372q0 219 131 365t328 146q170 0 305 -140v113zM326 490q0 -140 75 -228q77 -89 194 -89q125 0 202 86q77 89 77 226t-77 226q-77 87 -200 87q-116 0 -194 -88q-77 -89 -77 -220zM861 0
h196q-194 -129 -194 -224q0 -82 101 -82q29 0 64.5 5t80.5 15l-23 -166q-79 -49 -172 -49q-110 0 -183 61q-73 58 -73 151q0 90 46 151q46 66 157 138z" />
    <glyph glyph-name="Cacute" unicode="&#x106;" horiz-adv-x="1435" 
d="M1326 1461v-276q-202 169 -418 169q-238 0 -401 -171q-164 -170 -164 -416q0 -243 164 -410t402 -167q123 0 209 40q48 20 99.5 54t108.5 82v-281q-200 -113 -420 -113q-331 0 -565 231q-233 233 -233 562q0 295 195 526q240 283 621 283q208 0 402 -113zM1221 1959
l-408 -276l-111 93l321 322z" />
    <glyph glyph-name="cacute" unicode="&#x107;" horiz-adv-x="976" 
d="M900 932v-299q-77 94 -138 129q-60 36 -141 36q-127 0 -211 -89t-84 -223q0 -137 81 -225q82 -88 209 -88q81 0 143 35q60 34 141 132v-297q-137 -71 -274 -71q-226 0 -378 146q-152 147 -152 365t154 368t378 150q144 0 272 -69zM910 1454l-364 -330l-123 76l275 364z
" />
    <glyph glyph-name="Ccircumflex" unicode="&#x108;" horiz-adv-x="1435" 
d="M1326 1461v-276q-202 169 -418 169q-238 0 -401 -171q-164 -170 -164 -416q0 -243 164 -410t402 -167q123 0 209 40q48 20 99.5 54t108.5 82v-281q-200 -113 -420 -113q-331 0 -565 231q-233 233 -233 562q0 295 195 526q240 283 621 283q208 0 402 -113zM511 1807
l351 321l356 -321l-154 -119l-202 190l-199 -190z" />
    <glyph glyph-name="ccircumflex" unicode="&#x109;" horiz-adv-x="976" 
d="M900 932v-299q-77 94 -138 129q-60 36 -141 36q-127 0 -211 -89t-84 -223q0 -137 81 -225q82 -88 209 -88q81 0 143 35q60 34 141 132v-297q-137 -71 -274 -71q-226 0 -378 146q-152 147 -152 365t154 368t378 150q144 0 272 -69zM226 1243l351 321l356 -321l-154 -119
l-202 190l-199 -190z" />
    <glyph glyph-name="Cdotaccent" unicode="&#x10a;" horiz-adv-x="1435" 
d="M1326 1461v-276q-202 169 -418 169q-238 0 -401 -171q-164 -170 -164 -416q0 -243 164 -410t402 -167q123 0 209 40q48 20 99.5 54t108.5 82v-281q-200 -113 -420 -113q-331 0 -565 231q-233 233 -233 562q0 295 195 526q240 283 621 283q208 0 402 -113zM748 1834
q0 60 44 104q47 44 107 44q62 0 106 -44q45 -44 45 -106q0 -63 -45 -106q-44 -44 -106 -44q-63 0 -107 44t-44 108z" />
    <glyph glyph-name="cdotaccent" unicode="&#x10b;" horiz-adv-x="976" 
d="M900 932v-299q-77 94 -138 129q-60 36 -141 36q-127 0 -211 -89t-84 -223q0 -137 81 -225q82 -88 209 -88q81 0 143 35q60 34 141 132v-297q-137 -71 -274 -71q-226 0 -378 146q-152 147 -152 365t154 368t378 150q144 0 272 -69zM428 1292q0 60 44 104q47 44 107 44
q62 0 106 -44q45 -44 45 -106q0 -63 -45 -106q-44 -44 -106 -44q-63 0 -107 44t-44 108z" />
    <glyph glyph-name="Ccaron" unicode="&#x10c;" horiz-adv-x="1435" 
d="M1326 1461v-276q-202 169 -418 169q-238 0 -401 -171q-164 -170 -164 -416q0 -243 164 -410t402 -167q123 0 209 40q48 20 99.5 54t108.5 82v-281q-200 -113 -420 -113q-331 0 -565 231q-233 233 -233 562q0 295 195 526q240 283 621 283q208 0 402 -113zM1240 2004
l-351 -321l-356 321l154 119l201 -190l200 190z" />
    <glyph glyph-name="ccaron" unicode="&#x10d;" horiz-adv-x="976" 
d="M900 932v-299q-77 94 -138 129q-60 36 -141 36q-127 0 -211 -89t-84 -223q0 -137 81 -225q82 -88 209 -88q81 0 143 35q60 34 141 132v-297q-137 -71 -274 -71q-226 0 -378 146q-152 147 -152 365t154 368t378 150q144 0 272 -69zM919 1445l-351 -321l-356 321l154 119
l201 -190l200 190z" />
    <glyph glyph-name="Dcaron" unicode="&#x10e;" horiz-adv-x="1487" 
d="M185 0v1544h324q233 0 368 -46q145 -45 263 -153q239 -218 239 -573q0 -356 -249 -576q-125 -110 -262 -153q-128 -43 -363 -43h-320zM418 219h105q157 0 261 33q104 35 188 111q172 157 172 409q0 254 -170 412q-153 141 -451 141h-105v-1106zM963 2004l-351 -321
l-356 321l154 119l201 -190l200 190z" />
    <glyph glyph-name="dcaron" unicode="&#x10f;" horiz-adv-x="1450" 
d="M860 1689h226v-1689h-226v102q-133 -130 -301 -130q-200 0 -332 146q-131 149 -131 372q0 218 131 364q130 147 327 147q171 0 306 -140v828zM326 490q0 -140 75 -228q77 -89 194 -89q125 0 202 86q77 89 77 226t-77 226q-77 87 -200 87q-116 0 -194 -88
q-77 -89 -77 -220zM1417 1187l-75 -151l-125 53l61 151l-5 46h-81v250h225v-349z" />
    <glyph glyph-name="Dcroat" unicode="&#x110;" horiz-adv-x="1487" 
d="M185 0v703h-139v200h139v641h324q233 0 368 -46q145 -45 263 -153q239 -218 239 -573q0 -356 -249 -576q-125 -110 -262 -153q-128 -43 -363 -43h-320zM418 219h105q157 0 261 33q104 34 188 110q172 157 172 409q0 255 -170 413q-153 141 -451 141h-105v-422h332v-200
h-332v-484z" />
    <glyph glyph-name="dcroat" unicode="&#x111;" horiz-adv-x="1228" 
d="M326 490q0 -140 75 -228q77 -89 194 -89q125 0 202 86q77 89 77 226t-77 226q-77 87 -200 87q-116 0 -194 -88q-77 -89 -77 -220zM1086 1689v-299h174v-200h-174v-1190h-226v102q-133 -130 -301 -130q-200 0 -332 146q-131 149 -131 372q0 218 131 364q130 147 327 147
q171 0 306 -140v329h-240v200h240v299h226z" />
    <glyph glyph-name="Emacron" unicode="&#x112;" 
d="M1037 1325h-619v-371h601v-219h-601v-516h619v-219h-852v1544h852v-219zM241 1907h701v-180h-701v180z" />
    <glyph glyph-name="emacron" unicode="&#x113;" horiz-adv-x="1133" 
d="M1029 434h-698q9 -120 78 -191q69 -70 177 -70q84 0 139 40q54 40 123 148l190 -106q-44 -75 -93 -128.5t-105 -88t-121 -50.5t-141 -16q-218 0 -350 140q-132 141 -132 374q0 231 128 374q129 141 342 141q215 0 340 -137q124 -136 124 -377zM798 618q-47 180 -227 180
q-41 0 -77 -12.5t-65.5 -36t-50.5 -56.5t-32 -75h452zM220 1343h701v-180h-701v180z" />
    <glyph glyph-name="Ebreve" unicode="&#x114;" 
d="M1037 1325h-619v-371h601v-219h-601v-516h619v-219h-852v1544h852v-219zM249 2025h185q22 -157 174 -157q151 0 173 157h185q-15 -166 -106.5 -250.5t-256.5 -84.5q-153 0 -248 89q-94 88 -106 246z" />
    <glyph glyph-name="ebreve" unicode="&#x115;" horiz-adv-x="1133" 
d="M1029 434h-698q9 -120 78 -191q69 -70 177 -70q84 0 139 40q54 40 123 148l190 -106q-44 -75 -93 -128.5t-105 -88t-121 -50.5t-141 -16q-218 0 -350 140q-132 141 -132 374q0 231 128 374q129 141 342 141q215 0 340 -137q124 -136 124 -377zM798 618q-47 180 -227 180
q-41 0 -77 -12.5t-65.5 -36t-50.5 -56.5t-32 -75h452zM221 1462h185q22 -157 174 -157q151 0 173 157h185q-15 -166 -106.5 -250.5t-256.5 -84.5q-153 0 -248 89q-94 88 -106 246z" />
    <glyph glyph-name="Edotaccent" unicode="&#x116;" 
d="M1037 1325h-619v-371h601v-219h-601v-516h619v-219h-852v1544h852v-219zM461 1851q0 61 44 105q47 44 107 44q62 0 106 -44q45 -44 45 -106q0 -64 -45 -107q-44 -44 -106 -44q-63 0 -107 44q-44 47 -44 108z" />
    <glyph glyph-name="edotaccent" unicode="&#x117;" horiz-adv-x="1133" 
d="M1029 434h-698q9 -120 78 -191q69 -70 177 -70q84 0 139 40q54 40 123 148l190 -106q-44 -75 -93 -128.5t-105 -88t-121 -50.5t-141 -16q-218 0 -350 140q-132 141 -132 374q0 231 128 374q129 141 342 141q215 0 340 -137q124 -136 124 -377zM798 618q-47 180 -227 180
q-41 0 -77 -12.5t-65.5 -36t-50.5 -56.5t-32 -75h452zM424 1292q0 60 44 104q47 44 107 44q62 0 106 -44q45 -44 45 -106q0 -63 -45 -106q-44 -44 -106 -44q-63 0 -107 44t-44 108z" />
    <glyph glyph-name="Eogonek" unicode="&#x118;" 
d="M1037 1325h-619v-371h601v-219h-601v-516h619v-219h-852v1544h852v-219zM842 0h196q-194 -129 -194 -224q0 -82 101 -82q29 0 64.5 5t80.5 15l-23 -166q-79 -49 -172 -49q-110 0 -183 61q-73 58 -73 151q0 90 46 151q46 66 157 138z" />
    <glyph glyph-name="eogonek" unicode="&#x119;" horiz-adv-x="1133" 
d="M1029 434h-698q9 -120 78 -191q69 -70 177 -70q84 0 139 40q54 40 123 148l190 -106q-44 -75 -93 -128.5t-105 -88t-121 -50.5t-141 -16q-218 0 -350 140q-132 141 -132 374q0 231 128 374q129 141 342 141q215 0 340 -137q124 -136 124 -377zM798 618q-47 180 -227 180
q-41 0 -77 -12.5t-65.5 -36t-50.5 -56.5t-32 -75h452zM561 0h196q-194 -129 -194 -224q0 -82 101 -82q29 0 64.5 5t80.5 15l-23 -166q-79 -49 -172 -49q-110 0 -183 61q-73 58 -73 151q0 90 46 151q46 66 157 138z" />
    <glyph glyph-name="Ecaron" unicode="&#x11a;" 
d="M1037 1325h-619v-371h601v-219h-601v-516h619v-219h-852v1544h852v-219zM954 2004l-351 -321l-356 321l154 119l201 -190l200 190z" />
    <glyph glyph-name="ecaron" unicode="&#x11b;" horiz-adv-x="1133" 
d="M1029 434h-698q9 -120 78 -191q69 -70 177 -70q84 0 139 40q54 40 123 148l190 -106q-44 -75 -93 -128.5t-105 -88t-121 -50.5t-141 -16q-218 0 -350 140q-132 141 -132 374q0 231 128 374q129 141 342 141q215 0 340 -137q124 -136 124 -377zM798 618q-47 180 -227 180
q-41 0 -77 -12.5t-65.5 -36t-50.5 -56.5t-32 -75h452zM933 1445l-351 -321l-356 321l154 119l201 -190l200 190z" />
    <glyph glyph-name="Gcircumflex" unicode="&#x11c;" horiz-adv-x="1725" 
d="M979 804h638v-51q0 -174 -41 -308q-40 -124 -135 -232q-215 -242 -547 -242q-324 0 -555 234q-231 235 -231 564q0 336 235 570q235 235 572 235q181 0 338 -74q150 -74 295 -240l-166 -159q-190 253 -463 253q-245 0 -411 -169q-166 -166 -166 -416q0 -258 185 -425
q173 -155 375 -155q172 0 309 116q137 117 153 280h-385v219zM559 1806l351 321l356 -321l-154 -119l-202 190l-199 -190z" />
    <glyph glyph-name="gcircumflex" unicode="&#x11d;" horiz-adv-x="1226" 
d="M1084 23q0 -69 -4.5 -121.5t-12.5 -92.5q-24 -110 -94 -189q-132 -152 -363 -152q-195 0 -321 105q-130 108 -150 299h226q13 -72 43 -111q70 -91 204 -91q247 0 247 303v136q-134 -137 -309 -137q-199 0 -326 144q-128 146 -128 365q0 213 119 362q128 158 338 158
q184 0 306 -137v110h225v-951zM868 485q0 142 -76 227q-77 87 -197 87q-128 0 -202 -95q-67 -85 -67 -220q0 -133 67 -218q73 -93 202 -93t204 94q69 85 69 218zM226 1243l351 321l356 -321l-154 -119l-202 190l-199 -190z" />
    <glyph glyph-name="Gbreve" unicode="&#x11e;" horiz-adv-x="1725" 
d="M979 804h638v-51q0 -174 -41 -308q-40 -124 -135 -232q-215 -242 -547 -242q-324 0 -555 234q-231 235 -231 564q0 336 235 570q235 235 572 235q181 0 338 -74q150 -74 295 -240l-166 -159q-190 253 -463 253q-245 0 -411 -169q-166 -166 -166 -416q0 -258 185 -425
q173 -155 375 -155q172 0 309 116q137 117 153 280h-385v219zM535 2026h185q23 -158 174 -158q150 0 173 158h185q-15 -167 -106.5 -251t-256.5 -84q-153 0 -248 89q-94 88 -106 246z" />
    <glyph glyph-name="gbreve" unicode="&#x11f;" horiz-adv-x="1226" 
d="M1084 23q0 -69 -4.5 -121.5t-12.5 -92.5q-24 -110 -94 -189q-132 -152 -363 -152q-195 0 -321 105q-130 108 -150 299h226q13 -72 43 -111q70 -91 204 -91q247 0 247 303v136q-134 -137 -309 -137q-199 0 -326 144q-128 146 -128 365q0 213 119 362q128 158 338 158
q184 0 306 -137v110h225v-951zM868 485q0 142 -76 227q-77 87 -197 87q-128 0 -202 -95q-67 -85 -67 -220q0 -133 67 -218q73 -93 202 -93t204 94q69 85 69 218zM244 1462h185q22 -157 174 -157q151 0 173 157h185q-15 -166 -106.5 -250.5t-256.5 -84.5q-153 0 -248 89
q-94 88 -106 246z" />
    <glyph glyph-name="Gdotaccent" unicode="&#x120;" horiz-adv-x="1725" 
d="M979 804h638v-51q0 -174 -41 -308q-40 -124 -135 -232q-215 -242 -547 -242q-324 0 -555 234q-231 235 -231 564q0 336 235 570q235 235 572 235q181 0 338 -74q150 -74 295 -240l-166 -159q-190 253 -463 253q-245 0 -411 -169q-166 -166 -166 -416q0 -258 185 -425
q173 -155 375 -155q172 0 309 116q137 117 153 280h-385v219zM754 1841q0 60 44 104q47 44 107 44q62 0 106 -44q45 -44 45 -106q0 -63 -45 -106q-44 -44 -106 -44q-63 0 -107 44t-44 108z" />
    <glyph glyph-name="gdotaccent" unicode="&#x121;" horiz-adv-x="1226" 
d="M1084 23q0 -69 -4.5 -121.5t-12.5 -92.5q-24 -110 -94 -189q-132 -152 -363 -152q-195 0 -321 105q-130 108 -150 299h226q13 -72 43 -111q70 -91 204 -91q247 0 247 303v136q-134 -137 -309 -137q-199 0 -326 144q-128 146 -128 365q0 213 119 362q128 158 338 158
q184 0 306 -137v110h225v-951zM868 485q0 142 -76 227q-77 87 -197 87q-128 0 -202 -95q-67 -85 -67 -220q0 -133 67 -218q73 -93 202 -93t204 94q69 85 69 218zM428 1292q0 60 44 104q47 44 107 44q62 0 106 -44q45 -44 45 -106q0 -63 -45 -106q-44 -44 -106 -44
q-63 0 -107 44t-44 108z" />
    <glyph glyph-name="Gcedilla" unicode="&#x122;" horiz-adv-x="1725" 
d="M979 804h638v-51q0 -174 -41 -308q-40 -124 -135 -232q-215 -242 -547 -242q-324 0 -555 234q-231 235 -231 564q0 336 235 570q235 235 572 235q181 0 338 -74q150 -74 295 -240l-166 -159q-190 253 -463 253q-245 0 -411 -169q-166 -166 -166 -416q0 -258 185 -425
q173 -155 375 -155q172 0 309 116q137 117 153 280h-385v219zM1024 -440l-75 -151l-125 53l61 151l-5 46h-81v250h225v-349z" />
    <glyph glyph-name="gcedilla" unicode="&#x123;" horiz-adv-x="1226" 
d="M1084 23q0 -69 -4.5 -121.5t-12.5 -92.5q-24 -110 -94 -189q-132 -152 -363 -152q-195 0 -321 105q-130 108 -150 299h226q13 -72 43 -111q70 -91 204 -91q247 0 247 303v136q-134 -137 -309 -137q-199 0 -326 144q-128 146 -128 365q0 213 119 362q128 158 338 158
q184 0 306 -137v110h225v-951zM868 485q0 142 -76 227q-77 87 -197 87q-128 0 -202 -95q-67 -85 -67 -220q0 -133 67 -218q73 -93 202 -93t204 94q69 85 69 218zM495 1472l75 151l125 -53l-61 -151l5 -46h81v-250h-225v349z" />
    <glyph glyph-name="Hcircumflex" unicode="&#x124;" horiz-adv-x="1502" 
d="M418 940h666v604h233v-1544h-233v721h-666v-721h-233v1544h233v-604zM414 1799l351 321l356 -321l-154 -119l-202 190l-199 -190z" />
    <glyph glyph-name="hcircumflex" unicode="&#x125;" horiz-adv-x="1123" 
d="M142 1689h225v-796q120 108 265 108q165 0 264 -107q84 -93 84 -297v-597h-225v576q0 117 -41.5 169.5t-133.5 52.5q-118 0 -166 -73q-47 -74 -47 -254v-471h-225v1689zM-99 1799l351 321l356 -321l-154 -119l-202 190l-199 -190z" />
    <glyph glyph-name="Hbar" unicode="&#x126;" horiz-adv-x="1738" 
d="M521 940h666v604h233v-1544h-233v721h-666v-721h-233v1544h233v-604zM0 1337h1737v-210h-1737v210z" />
    <glyph glyph-name="hbar" unicode="&#x127;" horiz-adv-x="1123" 
d="M142 1689h225v-796q120 108 265 108q165 0 264 -107q84 -93 84 -297v-597h-225v576q0 117 -41.5 169.5t-133.5 52.5q-118 0 -166 -73q-47 -74 -47 -254v-471h-225v1689zM35 1336h446v-196h-446v196z" />
    <glyph glyph-name="Itilde" unicode="&#x128;" horiz-adv-x="827" 
d="M134 1682l-131 111l29 41q28 40 54 67.5t53 45t56 25t63 7.5q78 0 181 -52q104 -53 134 -53q56 0 124 108l127 -106q-96 -192 -260 -192q-56 0 -183 56q-91 46 -136 46q-55 0 -111 -104zM520 1541v-1544h-233v1544h233z" />
    <glyph glyph-name="itilde" unicode="&#x129;" horiz-adv-x="813" 
d="M127 1120l-131 111l29 41q28 40 54 67.5t53 45t56 25t63 7.5q78 0 181 -52q104 -53 134 -53q56 0 124 108l127 -106q-96 -192 -260 -192q-56 0 -183 56q-91 46 -136 46q-55 0 -111 -104zM520 974v-974h-225v974h225z" />
    <glyph glyph-name="Imacron" unicode="&#x12a;" horiz-adv-x="604" 
d="M418 1544v-1544h-233v1544h233zM3 1907h603v-180h-603v180z" />
    <glyph glyph-name="imacron" unicode="&#x12b;" horiz-adv-x="510" 
d="M367 974v-974h-225v974h225zM0 1343h510v-180h-510v180z" />
    <glyph glyph-name="Ibreve" unicode="&#x12c;" horiz-adv-x="721" 
d="M-1 2018h185q22 -157 174 -157q151 0 173 157h185q-15 -166 -106.5 -250.5t-256.5 -84.5q-153 0 -248 89q-94 88 -106 246zM481 1544v-1544h-233v1544h233z" />
    <glyph glyph-name="ibreve" unicode="&#x12d;" horiz-adv-x="716" 
d="M0 1456h185q22 -157 174 -157q151 0 173 157h185q-15 -166 -106.5 -250.5t-256.5 -84.5q-153 0 -248 89q-94 88 -106 246zM458 981v-974h-225v974h225z" />
    <glyph glyph-name="Iogonek" unicode="&#x12e;" horiz-adv-x="604" 
d="M418 1544v-1544h-233v1544h233zM187 0h196q-194 -129 -194 -224q0 -82 101 -82q29 0 64.5 5t80.5 15l-23 -166q-79 -49 -172 -49q-110 0 -183 61q-73 58 -73 151q0 90 46 151q46 66 157 138z" />
    <glyph glyph-name="iogonek" unicode="&#x12f;" horiz-adv-x="510" 
d="M367 974v-974h-225v974h225zM108 1379q0 59 43 102t103 43q61 0 104 -43q43 -42 43 -103t-43 -104q-42 -43 -103 -43t-104 43t-43 105zM145 0h196q-194 -129 -194 -224q0 -82 101 -82q29 0 64.5 5t80.5 15l-23 -166q-79 -49 -172 -49q-110 0 -183 61q-73 58 -73 151
q0 90 46 151q46 66 157 138z" />
    <glyph glyph-name="Idotaccent" unicode="&#x130;" horiz-adv-x="604" 
d="M418 1544v-1544h-233v1544h233zM151 1851q0 61 44 105q47 44 107 44q62 0 106 -44q45 -44 45 -106q0 -64 -45 -107q-44 -44 -106 -44q-63 0 -107 44q-44 47 -44 108z" />
    <glyph glyph-name="dotlessi" unicode="&#x131;" horiz-adv-x="510" 
d="M367 974v-974h-225v974h225z" />
    <glyph glyph-name="IJ" unicode="&#x132;" horiz-adv-x="1480" 
d="M418 1544v-1544h-233v1544h233zM1301 1551v-999q0 -179 -25 -267q-25 -100 -85 -169q-117 -137 -310 -137q-146 0 -273 76l114 199q85 -57 159 -57q104 0 144 79q42 79 42 276v999h234z" />
    <glyph glyph-name="ij" unicode="&#x133;" horiz-adv-x="1056" 
d="M367 974v-974h-225v974h225zM108 1379q0 59 43 102t103 43q61 0 104 -43q43 -42 43 -103t-43 -104q-42 -43 -103 -43t-104 43t-43 105zM854 974v-1504h-225v1504h225zM595 1379q0 59 43 102t103 43q61 0 104 -43q43 -42 43 -103t-43 -104q-42 -43 -103 -43t-104 43
t-43 105z" />
    <glyph glyph-name="Jcircumflex" unicode="&#x134;" horiz-adv-x="931" 
d="M655 1544v-999q0 -179 -25 -267q-25 -100 -85 -169q-117 -137 -310 -137q-146 0 -273 76l114 199q85 -57 159 -57q104 0 144 79q42 79 42 276v999h234zM220 1799l351 321l356 -321l-154 -119l-202 190l-199 -190z" />
    <glyph glyph-name="jcircumflex" unicode="&#x135;" horiz-adv-x="702" 
d="M-3 1249l351 321l356 -321l-154 -119l-202 190l-199 -190zM453 845v-1199h-226v1199h226z" />
    <glyph glyph-name="Kcedilla" unicode="&#x136;" horiz-adv-x="1357" 
d="M418 928l601 616h311l-698 -699l702 -845h-312l-556 687l-48 -48v-639h-233v1544h233v-616zM757 -440l-75 -151l-125 53l61 151l-5 46h-81v250h225v-349z" />
    <glyph glyph-name="kcedilla" unicode="&#x137;" horiz-adv-x="1020" 
d="M367 1689v-1030l317 315h302l-423 -409l454 -565h-292l-322 411l-36 -36v-375h-225v1689h225zM617 -440l-75 -151l-125 53l61 151l-5 46h-81v250h225v-349z" />
    <glyph glyph-name="kgreenlandic" unicode="&#x138;" horiz-adv-x="1020" 
d="M367 973v-314l317 315h302l-423 -409l454 -565h-292l-322 411l-36 -36v-375h-225v973h225z" />
    <glyph glyph-name="Lacute" unicode="&#x139;" horiz-adv-x="908" 
d="M418 1544v-1325h454v-219h-687v1544h233zM759 1959l-408 -276l-111 93l321 322z" />
    <glyph glyph-name="lacute" unicode="&#x13a;" horiz-adv-x="510" 
d="M367 1689v-1689h-225v1689h225zM568 2025l-408 -276l-111 93l321 322z" />
    <glyph glyph-name="Lcedilla" unicode="&#x13b;" horiz-adv-x="908" 
d="M418 1544v-1325h454v-219h-687v1544h233zM631 -440l-75 -151l-125 53l61 151l-5 46h-81v250h225v-349z" />
    <glyph glyph-name="lcedilla" unicode="&#x13c;" horiz-adv-x="510" 
d="M367 1689v-1689h-225v1689h225zM370 -440l-75 -151l-125 53l61 151l-5 46h-81v250h225v-349z" />
    <glyph glyph-name="Lcaron" unicode="&#x13d;" horiz-adv-x="908" 
d="M418 1544v-1325h454v-219h-687v1544h233zM804 1187l-75 -151l-125 53l61 151l-5 46h-81v250h225v-349z" />
    <glyph glyph-name="lcaron" unicode="&#x13e;" horiz-adv-x="731" 
d="M367 1689v-1689h-225v1689h225zM698 1187l-75 -151l-125 53l61 151l-5 46h-81v250h225v-349z" />
    <glyph glyph-name="Ldotaccent" unicode="&#x13f;" horiz-adv-x="908" 
d="M418 1544v-1325h454v-219h-687v1544h233zM609 1292q0 60 44 104q47 44 107 44q62 0 106 -44q45 -44 45 -106q0 -63 -45 -106q-44 -44 -106 -44q-63 0 -107 44t-44 108z" />
    <glyph glyph-name="ldotaccent" unicode="&#x140;" horiz-adv-x="959" 
d="M367 1689v-1689h-225v1689h225zM532 1279q0 60 44 104q47 44 107 44q62 0 106 -44q45 -44 45 -106q0 -63 -45 -106q-44 -44 -106 -44q-63 0 -107 44t-44 108z" />
    <glyph glyph-name="Lslash" unicode="&#x141;" horiz-adv-x="908" 
d="M419 956l298 197v-231l-298 -197v-506h454v-219h-687v600l-147 -98v232l147 98v712h233v-588z" />
    <glyph glyph-name="lslash" unicode="&#x142;" horiz-adv-x="611" 
d="M565 1081v-224l-147 -102v-755h-225v643l-147 -103v224l147 103v822h225v-710z" />
    <glyph glyph-name="Nacute" unicode="&#x143;" horiz-adv-x="1729" 
d="M185 0v1649l1126 -1178v1073h233v-1638l-1126 1175v-1081h-233zM1187 1959l-408 -276l-111 93l321 322z" />
    <glyph glyph-name="nacute" unicode="&#x144;" horiz-adv-x="1123" 
d="M142 974h226v-90q118 117 266 117q170 0 265 -107q82 -91 82 -297v-597h-226v544q0 144 -40 199q-39 56 -142 56q-112 0 -159 -74q-46 -73 -46 -255v-470h-226v974zM896 1454l-364 -330l-123 76l275 364z" />
    <glyph glyph-name="Ncedilla" unicode="&#x145;" horiz-adv-x="1729" 
d="M185 0v1649l1126 -1178v1073h233v-1638l-1126 1175v-1081h-233zM1015 -440l-75 -151l-125 53l61 151l-5 46h-81v250h225v-349z" />
    <glyph glyph-name="ncedilla" unicode="&#x146;" horiz-adv-x="1123" 
d="M142 974h226v-90q118 117 266 117q170 0 265 -107q82 -91 82 -297v-597h-226v544q0 144 -40 199q-39 56 -142 56q-112 0 -159 -74q-46 -73 -46 -255v-470h-226v974zM689 -440l-75 -151l-125 53l61 151l-5 46h-81v250h225v-349z" />
    <glyph glyph-name="Ncaron" unicode="&#x147;" horiz-adv-x="1729" 
d="M185 0v1649l1126 -1178v1073h233v-1638l-1126 1175v-1081h-233zM1224 2004l-351 -321l-356 321l154 119l201 -190l200 190z" />
    <glyph glyph-name="ncaron" unicode="&#x148;" horiz-adv-x="1123" 
d="M142 974h226v-90q118 117 266 117q170 0 265 -107q82 -91 82 -297v-597h-226v544q0 144 -40 199q-39 56 -142 56q-112 0 -159 -74q-46 -73 -46 -255v-470h-226v974zM933 1445l-351 -321l-356 321l154 119l201 -190l200 190z" />
    <glyph glyph-name="quoterightn" unicode="&#x149;" horiz-adv-x="1592" 
d="M533 974h226v-90q118 117 266 117q170 0 265 -107q82 -91 82 -297v-597h-226v544q0 144 -40 199q-39 56 -142 56q-112 0 -159 -74q-46 -73 -46 -255v-470h-226v974zM353 1625l200 -78l-285 -572l-152 63z" />
    <glyph glyph-name="Omacron" unicode="&#x14c;" horiz-adv-x="1830" 
d="M108 779q0 326 239 560q238 234 572 234q330 0 566 -236q237 -236 237 -567q0 -333 -238 -565q-239 -233 -577 -233q-299 0 -537 207q-262 229 -262 600zM343 776q0 -256 172 -421q171 -165 395 -165q243 0 410 168q167 170 167 414q0 247 -165 414q-164 168 -406 168
q-241 0 -407 -168q-166 -166 -166 -410zM571 1907h701v-180h-701v180z" />
    <glyph glyph-name="omacron" unicode="&#x14d;" horiz-adv-x="1231" 
d="M96 494q0 211 151 359t368 148q218 0 370 -149q150 -149 150 -366q0 -219 -151 -367q-152 -147 -373 -147q-219 0 -367 150q-148 148 -148 372zM326 490q0 -146 78 -231q80 -86 211 -86q132 0 211 85t79 227t-79 227q-80 86 -211 86q-129 0 -209 -86t-80 -222zM268 1343
h701v-180h-701v180z" />
    <glyph glyph-name="Obreve" unicode="&#x14e;" horiz-adv-x="1830" 
d="M108 779q0 326 239 560q238 234 572 234q330 0 566 -236q237 -236 237 -567q0 -333 -238 -565q-239 -233 -577 -233q-299 0 -537 207q-262 229 -262 600zM343 776q0 -256 172 -421q171 -165 395 -165q243 0 410 168q167 170 167 414q0 247 -165 414q-164 168 -406 168
q-241 0 -407 -168q-166 -166 -166 -410zM555 2018h185q22 -157 174 -157q151 0 173 157h185q-15 -166 -106.5 -250.5t-256.5 -84.5q-153 0 -248 89q-94 88 -106 246z" />
    <glyph glyph-name="obreve" unicode="&#x14f;" horiz-adv-x="1231" 
d="M96 494q0 211 151 359t368 148q218 0 370 -149q150 -149 150 -366q0 -219 -151 -367q-152 -147 -373 -147q-219 0 -367 150q-148 148 -148 372zM326 490q0 -146 78 -231q80 -86 211 -86q132 0 211 85t79 227t-79 227q-80 86 -211 86q-129 0 -209 -86t-80 -222zM249 1462
h185q22 -157 174 -157q151 0 173 157h185q-15 -166 -106.5 -250.5t-256.5 -84.5q-153 0 -248 89q-94 88 -106 246z" />
    <glyph glyph-name="Ohungarumlaut" unicode="&#x150;" horiz-adv-x="1830" 
d="M108 779q0 326 239 560q238 234 572 234q330 0 566 -236q237 -236 237 -567q0 -333 -238 -565q-239 -233 -577 -233q-299 0 -537 207q-262 229 -262 600zM343 776q0 -256 172 -421q171 -165 395 -165q243 0 410 168q167 170 167 414q0 247 -165 414q-164 168 -406 168
q-241 0 -407 -168q-166 -166 -166 -410zM1496 1959l-408 -276l-111 93l321 322zM1078 1959l-408 -276l-111 93l321 322z" />
    <glyph glyph-name="ohungarumlaut" unicode="&#x151;" horiz-adv-x="1231" 
d="M96 494q0 211 151 359t368 148q218 0 370 -149q150 -149 150 -366q0 -219 -151 -367q-152 -147 -373 -147q-219 0 -367 150q-148 148 -148 372zM326 490q0 -146 78 -231q80 -86 211 -86q132 0 211 85t79 227t-79 227q-80 86 -211 86q-129 0 -209 -86t-80 -222zM711 1454
l-334 -330l-99 76l244 364zM1128 1454l-334 -330l-99 76l243 364z" />
    <glyph glyph-name="OE" unicode="&#x152;" horiz-adv-x="2424" 
d="M2304 1325h-598v-372h581v-220h-581v-514h598v-219h-831v213q-136 -132 -263 -187q-126 -54 -287 -54q-339 0 -577 232t-238 563q0 303 203 539q231 268 602 268q174 0 294 -58q130 -58 266 -193v221h831v-219zM343 782q0 -247 162 -419t395 -172q239 0 407 168
q168 169 168 408q0 240 -168 413q-167 173 -401 173q-230 0 -396 -169q-167 -170 -167 -402z" />
    <glyph glyph-name="oe" unicode="&#x153;" horiz-adv-x="1952" 
d="M1854 434h-711q8 -114 82 -188q73 -73 183 -73q159 0 258 192l192 -111q-171 -283 -466 -283q-104 0 -216 50q-103 51 -164 136q-158 -185 -402 -185q-212 0 -364 149q-150 148 -150 362q0 219 152 368q151 150 374 150q246 0 390 -189q133 189 370 189q218 0 346 -137
t128 -372zM1618 618q-39 180 -227 180q-181 0 -230 -180h457zM327 490q0 -147 75 -232q76 -85 206 -85q69 0 123 21.5t91.5 62t57 98.5t19.5 132q0 73 -19.5 131t-56.5 98t-90 61t-120 21q-131 0 -209 -84q-77 -83 -77 -224z" />
    <glyph glyph-name="Racute" unicode="&#x154;" horiz-adv-x="1233" 
d="M708 658l478 -658h-285l-441 632h-42v-632h-233v1544h273q306 0 442 -115q150 -128 150 -338q0 -164 -94 -282t-248 -151zM418 835h74q331 0 331 253q0 237 -322 237h-83v-490zM878 1959l-408 -276l-111 93l321 322z" />
    <glyph glyph-name="racute" unicode="&#x155;" horiz-adv-x="766" 
d="M142 974h225v-87q62 65 110 89q49 25 116 25q89 0 186 -58l-103 -206q-64 46 -125 46q-184 0 -184 -278v-505h-225v974zM774 1454l-364 -330l-123 76l275 364z" />
    <glyph glyph-name="Rcedilla" unicode="&#x156;" horiz-adv-x="1233" 
d="M708 658l478 -658h-285l-441 632h-42v-632h-233v1544h273q306 0 442 -115q150 -128 150 -338q0 -164 -94 -282t-248 -151zM418 835h74q331 0 331 253q0 237 -322 237h-83v-490zM723 -440l-75 -151l-125 53l61 151l-5 46h-81v250h225v-349z" />
    <glyph glyph-name="rcedilla" unicode="&#x157;" horiz-adv-x="766" 
d="M142 974h225v-87q62 65 110 89q49 25 116 25q89 0 186 -58l-103 -206q-64 46 -125 46q-184 0 -184 -278v-505h-225v974zM487 -440l-75 -151l-125 53l61 151l-5 46h-81v250h225v-349z" />
    <glyph glyph-name="Rcaron" unicode="&#x158;" horiz-adv-x="1233" 
d="M708 658l478 -658h-285l-441 632h-42v-632h-233v1544h273q306 0 442 -115q150 -128 150 -338q0 -164 -94 -282t-248 -151zM418 835h74q331 0 331 253q0 237 -322 237h-83v-490zM912 2004l-351 -321l-356 321l154 119l201 -190l200 190z" />
    <glyph glyph-name="rcaron" unicode="&#x159;" horiz-adv-x="766" 
d="M142 974h225v-87q62 65 110 89q49 25 116 25q89 0 186 -58l-103 -206q-64 46 -125 46q-184 0 -184 -278v-505h-225v974zM765 1445l-351 -321l-356 321l154 119l201 -190l200 190z" />
    <glyph glyph-name="Sacute" unicode="&#x15a;" horiz-adv-x="1194" 
d="M1058 1314l-189 -112q-53 92 -101 120q-50 32 -129 32q-97 0 -161 -55q-64 -54 -64 -136q0 -113 168 -182l154 -63q188 -76 275 -185.5t87 -268.5q0 -213 -142 -352q-143 -140 -355 -140q-201 0 -332 119q-129 119 -161 335l236 52q16 -136 56 -188q72 -100 210 -100
q109 0 181 73t72 185q0 45 -12.5 82.5t-39 69t-68.5 59t-100 52.5l-149 62q-317 134 -317 392q0 174 133 291q133 118 331 118q267 0 417 -260zM962 1959l-408 -276l-111 93l321 322z" />
    <glyph glyph-name="sacute" unicode="&#x15b;" horiz-adv-x="831" 
d="M708 808l-186 -99q-44 90 -109 90q-31 0 -53 -20.5t-22 -52.5q0 -56 130 -111q179 -77 241 -142t62 -175q0 -141 -104 -236q-101 -90 -244 -90q-245 0 -347 239l192 89q40 -70 61 -89q41 -38 98 -38q114 0 114 104q0 60 -88 112q-34 17 -68 33t-69 33q-98 48 -138 96
q-51 61 -51 157q0 127 87 210q89 83 216 83q187 0 278 -193zM776 1454l-364 -330l-123 76l275 364z" />
    <glyph glyph-name="Scircumflex" unicode="&#x15c;" horiz-adv-x="1194" 
d="M1058 1314l-189 -112q-53 92 -101 120q-50 32 -129 32q-97 0 -161 -55q-64 -54 -64 -136q0 -113 168 -182l154 -63q188 -76 275 -185.5t87 -268.5q0 -213 -142 -352q-143 -140 -355 -140q-201 0 -332 119q-129 119 -161 335l236 52q16 -136 56 -188q72 -100 210 -100
q109 0 181 73t72 185q0 45 -12.5 82.5t-39 69t-68.5 59t-100 52.5l-149 62q-317 134 -317 392q0 174 133 291q133 118 331 118q267 0 417 -260zM273 1799l351 321l356 -321l-154 -119l-202 190l-199 -190z" />
    <glyph glyph-name="scircumflex" unicode="&#x15d;" horiz-adv-x="831" 
d="M708 808l-186 -99q-44 90 -109 90q-31 0 -53 -20.5t-22 -52.5q0 -56 130 -111q179 -77 241 -142t62 -175q0 -141 -104 -236q-101 -90 -244 -90q-245 0 -347 239l192 89q40 -70 61 -89q41 -38 98 -38q114 0 114 104q0 60 -88 112q-34 17 -68 33t-69 33q-98 48 -138 96
q-51 61 -51 157q0 127 87 210q89 83 216 83q187 0 278 -193zM74 1243l351 321l356 -321l-154 -119l-202 190l-199 -190z" />
    <glyph glyph-name="Scedilla" unicode="&#x15e;" horiz-adv-x="1194" 
d="M1058 1314l-189 -112q-53 92 -101 120q-50 32 -129 32q-97 0 -161 -55q-64 -54 -64 -136q0 -113 168 -182l154 -63q188 -76 275 -185.5t87 -268.5q0 -213 -142 -352q-143 -140 -355 -140q-201 0 -332 119q-129 119 -161 335l236 52q16 -136 56 -188q72 -100 210 -100
q109 0 181 73t72 185q0 45 -12.5 82.5t-39 69t-68.5 59t-100 52.5l-149 62q-317 134 -317 392q0 174 133 291q133 118 331 118q267 0 417 -260zM787 -199l-239 -306l-146 73l199 309z" />
    <glyph glyph-name="scedilla" unicode="&#x15f;" horiz-adv-x="831" 
d="M602 -199l-239 -306l-146 73l199 309zM708 808l-186 -99q-44 90 -109 90q-31 0 -53 -20.5t-22 -52.5q0 -56 130 -111q179 -77 241 -142t62 -175q0 -141 -104 -236q-101 -90 -244 -90q-245 0 -347 239l192 89q40 -70 61 -89q41 -38 98 -38q114 0 114 104q0 60 -88 112
q-34 17 -68 33t-69 33q-98 48 -138 96q-51 61 -51 157q0 127 87 210q89 83 216 83q187 0 278 -193z" />
    <glyph glyph-name="Scaron" unicode="&#x160;" horiz-adv-x="1194" 
d="M1058 1314l-189 -112q-53 92 -101 120q-50 32 -129 32q-97 0 -161 -55q-64 -54 -64 -136q0 -113 168 -182l154 -63q188 -76 275 -185.5t87 -268.5q0 -213 -142 -352q-143 -140 -355 -140q-201 0 -332 119q-129 119 -161 335l236 52q16 -136 56 -188q72 -100 210 -100
q109 0 181 73t72 185q0 45 -12.5 82.5t-39 69t-68.5 59t-100 52.5l-149 62q-317 134 -317 392q0 174 133 291q133 118 331 118q267 0 417 -260zM973 2008l-351 -321l-356 321l154 119l201 -190l200 190z" />
    <glyph glyph-name="scaron" unicode="&#x161;" horiz-adv-x="831" 
d="M770 1445l-351 -321l-356 321l154 119l201 -190l200 190zM708 808l-186 -99q-44 90 -109 90q-31 0 -53 -20.5t-22 -52.5q0 -56 130 -111q179 -77 241 -142t62 -175q0 -141 -104 -236q-101 -90 -244 -90q-245 0 -347 239l192 89q40 -70 61 -89q41 -38 98 -38
q114 0 114 104q0 60 -88 112q-34 17 -68 33t-69 33q-98 48 -138 96q-51 61 -51 157q0 127 87 210q89 83 216 83q187 0 278 -193z" />
    <glyph glyph-name="Tcedilla" unicode="&#x162;" horiz-adv-x="988" 
d="M611 1325v-1325h-233v1325h-355v219h942v-219h-354zM608 -440l-75 -151l-125 53l61 151l-5 46h-81v250h225v-349z" />
    <glyph glyph-name="Tcedilla" unicode="&#x21a;" horiz-adv-x="988" 
d="M611 1325v-1325h-233v1325h-355v219h942v-219h-354zM608 -440l-75 -151l-125 53l61 151l-5 46h-81v250h225v-349z" />
    <glyph glyph-name="tcedilla" unicode="&#x163;" horiz-adv-x="560" 
d="M374 764v-764h-225v764h-96v210h96v357h225v-357h175v-210h-175zM376 -440l-75 -151l-125 53l61 151l-5 46h-81v250h225v-349z" />
    <glyph glyph-name="tcedilla" unicode="&#x21b;" horiz-adv-x="560" 
d="M374 764v-764h-225v764h-96v210h96v357h225v-357h175v-210h-175zM376 -440l-75 -151l-125 53l61 151l-5 46h-81v250h225v-349z" />
    <glyph glyph-name="Tcaron" unicode="&#x164;" horiz-adv-x="988" 
d="M611 1325v-1325h-233v1325h-355v219h942v-219h-354zM849 2004l-351 -321l-356 321l154 119l201 -190l200 190z" />
    <glyph glyph-name="tcaron" unicode="&#x165;" horiz-adv-x="771" 
d="M374 764v-764h-225v764h-96v210h96v357h225v-357h175v-210h-175zM736 1187l-75 -151l-125 53l61 151l-5 46h-81v250h225v-349z" />
    <glyph glyph-name="Tbar" unicode="&#x166;" horiz-adv-x="988" 
d="M611 1325v-1325h-233v1325h-355v219h942v-219h-354zM265 983h446v-196h-446v196z" />
    <glyph glyph-name="tbar" unicode="&#x167;" horiz-adv-x="560" 
d="M374 764v-764h-225v764h-96v210h96v357h225v-357h175v-210h-175zM42 587h446v-196h-446v196z" />
    <glyph glyph-name="Utilde" unicode="&#x168;" horiz-adv-x="1513" 
d="M418 1544v-930q0 -199 65 -291q97 -133 273 -133q177 0 274 133q65 89 65 291v930h233v-994q0 -244 -152 -402q-171 -176 -420 -176t-419 176q-152 158 -152 402v994h233zM494 1682l-131 111l29 41q28 40 54 67.5t53 45t56 25t63 7.5q78 0 181 -52q104 -53 134 -53
q56 0 124 108l127 -106q-96 -192 -260 -192q-56 0 -183 56q-91 46 -136 46q-55 0 -111 -104z" />
    <glyph glyph-name="utilde" unicode="&#x169;" horiz-adv-x="1116" 
d="M367 974v-559q0 -242 191 -242t191 242v559h225v-564q0 -117 -29 -202q-28 -76 -97 -137q-114 -99 -290 -99q-175 0 -289 99q-70 61 -99 137q-28 68 -28 202v564h225zM300 1140l-131 111l29 41q28 40 54 67.5t53 45t56 25t63 7.5q78 0 181 -52q104 -53 134 -53
q56 0 124 108l127 -106q-96 -192 -260 -192q-56 0 -183 56q-91 46 -136 46q-55 0 -111 -104z" />
    <glyph glyph-name="Umacron" unicode="&#x16a;" horiz-adv-x="1513" 
d="M418 1544v-930q0 -199 65 -291q97 -133 273 -133q177 0 274 133q65 89 65 291v930h233v-994q0 -244 -152 -402q-171 -176 -420 -176t-419 176q-152 158 -152 402v994h233zM409 1907h701v-180h-701v180z" />
    <glyph glyph-name="umacron" unicode="&#x16b;" horiz-adv-x="1116" 
d="M367 974v-559q0 -242 191 -242t191 242v559h225v-564q0 -117 -29 -202q-28 -76 -97 -137q-114 -99 -290 -99q-175 0 -289 99q-70 61 -99 137q-28 68 -28 202v564h225zM213 1343h701v-180h-701v180z" />
    <glyph glyph-name="Ubreve" unicode="&#x16c;" horiz-adv-x="1513" 
d="M418 1544v-930q0 -199 65 -291q97 -133 273 -133q177 0 274 133q65 89 65 291v930h233v-994q0 -244 -152 -402q-171 -176 -420 -176t-419 176q-152 158 -152 402v994h233zM402 2025h185q22 -157 174 -157q151 0 173 157h185q-15 -166 -106.5 -250.5t-256.5 -84.5
q-153 0 -248 89q-94 88 -106 246z" />
    <glyph glyph-name="ubreve" unicode="&#x16d;" horiz-adv-x="1116" 
d="M367 974v-559q0 -242 191 -242t191 242v559h225v-564q0 -117 -29 -202q-28 -76 -97 -137q-114 -99 -290 -99q-175 0 -289 99q-70 61 -99 137q-28 68 -28 202v564h225zM221 1462h185q22 -157 174 -157q151 0 173 157h185q-15 -166 -106.5 -250.5t-256.5 -84.5
q-153 0 -248 89q-94 88 -106 246z" />
    <glyph glyph-name="Uring" unicode="&#x16e;" horiz-adv-x="1513" 
d="M418 1544v-930q0 -199 65 -291q97 -133 273 -133q177 0 274 133q65 89 65 291v930h233v-994q0 -244 -152 -402q-171 -176 -420 -176t-419 176q-152 158 -152 402v994h233zM551 1906q0 88 64 151q64 64 153 64q91 0 154 -64q64 -64 64 -154t-64 -154q-63 -64 -153 -64
q-91 0 -155 64q-63 64 -63 157zM670 1904q0 -43 28.5 -71.5t70.5 -28.5t70.5 28.5t28.5 70.5t-28.5 70.5t-70.5 28.5q-21 0 -39 -8t-31.5 -21.5t-21 -31.5t-7.5 -37z" />
    <glyph glyph-name="uring" unicode="&#x16f;" horiz-adv-x="1116" 
d="M367 974v-559q0 -242 191 -242t191 242v559h225v-564q0 -117 -29 -202q-28 -76 -97 -137q-114 -99 -290 -99q-175 0 -289 99q-70 61 -99 137q-28 68 -28 202v564h225zM347 1345q0 88 64 151q64 64 153 64q91 0 154 -64q64 -64 64 -154t-64 -154q-63 -64 -153 -64
q-91 0 -155 64q-63 64 -63 157zM466 1343q0 -43 28.5 -71.5t70.5 -28.5t70.5 28.5t28.5 70.5t-28.5 70.5t-70.5 28.5q-21 0 -39 -8t-31.5 -21.5t-21 -31.5t-7.5 -37z" />
    <glyph glyph-name="Uhungarumlaut" unicode="&#x170;" horiz-adv-x="1513" 
d="M418 1544v-930q0 -199 65 -291q97 -133 273 -133q177 0 274 133q65 89 65 291v930h233v-994q0 -244 -152 -402q-171 -176 -420 -176t-419 176q-152 158 -152 402v994h233zM1348 1959l-408 -276l-111 93l321 322zM930 1959l-408 -276l-111 93l321 322z" />
    <glyph glyph-name="uhungarumlaut" unicode="&#x171;" horiz-adv-x="1116" 
d="M367 974v-559q0 -242 191 -242t191 242v559h225v-564q0 -117 -29 -202q-28 -76 -97 -137q-114 -99 -290 -99q-175 0 -289 99q-70 61 -99 137q-28 68 -28 202v564h225zM685 1454l-334 -330l-99 76l244 364zM1102 1454l-334 -330l-99 76l243 364z" />
    <glyph glyph-name="Uogonek" unicode="&#x172;" horiz-adv-x="1513" 
d="M418 1544v-930q0 -199 65 -291q97 -133 273 -133q177 0 274 133q65 89 65 291v930h233v-994q0 -244 -152 -402q-171 -176 -420 -176t-419 176q-152 158 -152 402v994h233zM744 0h196q-194 -129 -194 -224q0 -82 101 -82q29 0 64.5 5t80.5 15l-23 -166q-79 -49 -172 -49
q-110 0 -183 61q-73 58 -73 151q0 90 46 151q46 66 157 138z" />
    <glyph glyph-name="uogonek" unicode="&#x173;" horiz-adv-x="1116" 
d="M367 974v-559q0 -242 191 -242t191 242v559h225v-564q0 -117 -29 -202q-28 -76 -97 -137q-114 -99 -290 -99q-175 0 -289 99q-70 61 -99 137q-28 68 -28 202v564h225zM532 0h196q-194 -129 -194 -224q0 -82 101 -82q29 0 64.5 5t80.5 15l-23 -166q-79 -49 -172 -49
q-110 0 -183 61q-73 58 -73 151q0 90 46 151q46 66 157 138z" />
    <glyph glyph-name="Wcircumflex" unicode="&#x174;" horiz-adv-x="2172" 
d="M261 1544l402 -1032l420 1107l402 -1107l427 1032h253l-690 -1642l-397 1094l-414 -1095l-656 1643h253zM733 1806l351 321l356 -321l-154 -119l-202 190l-199 -190z" />
    <glyph glyph-name="wcircumflex" unicode="&#x175;" horiz-adv-x="1585" 
d="M264 974l255 -556l275 645l277 -645l252 556h252l-510 -1047l-271 627l-274 -627l-509 1047h253zM441 1250l351 321l356 -321l-154 -119l-202 190l-199 -190z" />
    <glyph glyph-name="Ycircumflex" unicode="&#x176;" horiz-adv-x="1229" 
d="M497 667l-504 877h268l353 -617l354 617h268l-506 -877v-667h-233v667zM258 1800l351 321l356 -321l-154 -119l-202 190l-199 -190z" />
    <glyph glyph-name="ycircumflex" unicode="&#x177;" horiz-adv-x="1113" 
d="M449 181l-438 793h261l298 -560l278 560h254l-776 -1504h-257zM220 1243l351 321l356 -321l-154 -119l-202 190l-199 -190z" />
    <glyph glyph-name="Ydieresis" unicode="&#x178;" horiz-adv-x="1229" 
d="M497 667l-504 877h268l353 -617l354 617h268l-506 -877v-667h-233v667zM249 1844q0 58 42 100t100 42q60 0 101 -42q42 -42 42 -102q0 -59 -42 -101q-41 -42 -100 -42q-60 0 -102 42q-41 44 -41 103zM698 1844q0 58 42 100t101 42t101 -42t42 -102q0 -59 -42 -101
t-101 -42q-60 0 -102 42q-41 44 -41 103z" />
    <glyph glyph-name="Zacute" unicode="&#x179;" horiz-adv-x="1280" 
d="M452 219h741v-219h-1124l758 1325h-634v219h1017zM1012 1959l-408 -276l-111 93l321 322z" />
    <glyph glyph-name="zacute" unicode="&#x17a;" horiz-adv-x="1113" 
d="M465 212h579v-212h-1025l631 764h-497v210h942zM962 1454l-364 -330l-123 76l275 364z" />
    <glyph glyph-name="Zdotaccent" unicode="&#x17b;" horiz-adv-x="1280" 
d="M452 219h741v-219h-1124l758 1325h-634v219h1017zM532 1851q0 61 44 105q47 44 107 44q62 0 106 -44q45 -44 45 -106q0 -64 -45 -107q-44 -44 -106 -44q-63 0 -107 44q-44 47 -44 108z" />
    <glyph glyph-name="zdotaccent" unicode="&#x17c;" horiz-adv-x="1113" 
d="M465 212h579v-212h-1025l631 764h-497v210h942zM455 1292q0 60 44 104q47 44 107 44q62 0 106 -44q45 -44 45 -106q0 -63 -45 -106q-44 -44 -106 -44q-63 0 -107 44t-44 108z" />
    <glyph glyph-name="Zcaron" unicode="&#x17d;" horiz-adv-x="1280" 
d="M452 219h741v-219h-1124l758 1325h-634v219h1017zM1040 2004l-351 -321l-356 321l154 119l201 -190l200 190z" />
    <glyph glyph-name="zcaron" unicode="&#x17e;" horiz-adv-x="1113" 
d="M465 212h579v-212h-1025l631 764h-497v210h942zM957 1445l-351 -321l-356 321l154 119l201 -190l200 190z" />
    <glyph glyph-name="florin" unicode="&#x192;" horiz-adv-x="1313" 
d="M794 976h253l-25 -182h-260l-109 -606q-17 -94 -34 -163.5t-34 -115.5q-32 -89 -91 -148q-131 -131 -359 -131q-25 0 -74 3l37 213q150 0 209 53q75 70 112 286l107 609h-188l24 182h198l43 250q36 208 136.5 307t274.5 99q62 0 145 -21l-41 -213q-57 21 -102 21
q-78 0 -117 -48q-38 -47 -63 -175z" />
    <glyph glyph-name="Scommaaccent" unicode="&#x218;" horiz-adv-x="1194" 
d="M1058 1314l-189 -112q-53 92 -101 120q-50 32 -129 32q-97 0 -161 -55q-64 -54 -64 -136q0 -113 168 -182l154 -63q188 -76 275 -185.5t87 -268.5q0 -213 -142 -352q-143 -140 -355 -140q-201 0 -332 119q-129 119 -161 335l236 52q16 -136 56 -188q72 -100 210 -100
q109 0 181 73t72 185q0 45 -12.5 82.5t-39 69t-68.5 59t-100 52.5l-149 62q-317 134 -317 392q0 174 133 291q133 118 331 118q267 0 417 -260zM801 -211l-262 -308l-146 77l211 319z" />
    <glyph glyph-name="scommaaccent" unicode="&#x219;" horiz-adv-x="831" 
d="M601 -199l-239 -306l-146 73l199 309zM708 808l-186 -99q-44 90 -109 90q-31 0 -53 -20.5t-22 -52.5q0 -56 130 -111q179 -77 241 -142t62 -175q0 -141 -104 -236q-101 -90 -244 -90q-245 0 -347 239l192 89q40 -70 61 -89q41 -38 98 -38q114 0 114 104q0 60 -88 112
q-34 17 -68 33t-69 33q-98 48 -138 96q-51 61 -51 157q0 127 87 210q89 83 216 83q187 0 278 -193z" />
    <glyph glyph-name="quoteleft" unicode="&#x2bb;" horiz-adv-x="669" 
d="M317 961l-201 78l285 572l152 -62z" />
    <glyph glyph-name="quoteleft" unicode="&#x2018;" horiz-adv-x="669" 
d="M317 961l-201 78l285 572l152 -62z" />
    <glyph glyph-name="quoteright" unicode="&#x2bc;" horiz-adv-x="669" 
d="M353 1611l200 -78l-285 -572l-152 63z" />
    <glyph glyph-name="quoteright" unicode="&#x2019;" horiz-adv-x="669" 
d="M353 1611l200 -78l-285 -572l-152 63z" />
    <glyph glyph-name="circumflex" unicode="&#x2c6;" 
d="M226 1243l351 321l356 -321l-154 -119l-202 190l-199 -190z" />
    <glyph glyph-name="caron" unicode="&#x2c7;" 
d="M933 1445l-351 -321l-356 321l154 119l201 -190l200 190z" />
    <glyph glyph-name="breve" unicode="&#x2d8;" 
d="M221 1462h185q22 -157 174 -157q151 0 173 157h185q-15 -166 -106.5 -250.5t-256.5 -84.5q-153 0 -248 89q-94 88 -106 246z" />
    <glyph glyph-name="dotaccent" unicode="&#x2d9;" 
d="M428 1292q0 60 44 104q47 44 107 44q62 0 106 -44q45 -44 45 -106q0 -63 -45 -106q-44 -44 -106 -44q-63 0 -107 44t-44 108z" />
    <glyph glyph-name="ring" unicode="&#x2da;" 
d="M392 1345q0 88 64 151q64 64 153 64q91 0 154 -64q64 -64 64 -154t-64 -154q-63 -64 -153 -64q-91 0 -155 64q-63 64 -63 157zM511 1343q0 -43 28.5 -71.5t70.5 -28.5t70.5 28.5t28.5 70.5t-28.5 70.5t-70.5 28.5q-21 0 -39 -8t-31.5 -21.5t-21 -31.5t-7.5 -37z" />
    <glyph glyph-name="ogonek" unicode="&#x2db;" horiz-adv-x="1332" 
d="M662 0h196q-194 -129 -194 -224q0 -82 101 -82q29 0 64.5 5t80.5 15l-23 -166q-79 -49 -172 -49q-110 0 -183 61q-73 58 -73 151q0 90 46 151q46 66 157 138z" />
    <glyph glyph-name="tilde" unicode="&#x2dc;" 
d="M300 1140l-131 111l29 41q28 40 54 67.5t53 45t56 25t63 7.5q78 0 181 -52q104 -53 134 -53q56 0 124 108l127 -106q-96 -192 -260 -192q-56 0 -183 56q-91 46 -136 46q-55 0 -111 -104z" />
    <glyph glyph-name="hungarumlaut" unicode="&#x2dd;" 
d="M726 1454l-334 -330l-99 76l244 364zM1143 1454l-334 -330l-99 76l243 364z" />
    <glyph glyph-name="gravecmb" unicode="&#x300;" horiz-adv-x="0" 
d="M-960 1454l211 110l276 -364l-124 -76z" />
    <glyph glyph-name="acutecmb" unicode="&#x301;" horiz-adv-x="0" 
d="M-195 1454l-364 -330l-123 76l275 364z" />
    <glyph glyph-name="circumflexcmb" unicode="&#x302;" horiz-adv-x="0" 
d="M-931 1243l351 321l356 -321l-154 -119l-202 190l-199 -190z" />
    <glyph glyph-name="tildecmb" unicode="&#x303;" horiz-adv-x="0" 
d="M-857 1140l-131 111l29 41q28 40 54 67.5t53 45t56 25t63 7.5q78 0 181 -52q104 -53 134 -53q56 0 124 108l127 -106q-96 -192 -260 -192q-56 0 -183 56q-91 46 -136 46q-55 0 -111 -104z" />
    <glyph glyph-name="macroncmb" unicode="&#x304;" horiz-adv-x="0" 
d="M-928 1343h701v-180h-701v180z" />
    <glyph glyph-name="brevecmb" unicode="&#x306;" horiz-adv-x="0" 
d="M-936 1462h185q22 -157 174 -157q151 0 173 157h185q-15 -166 -106.5 -250.5t-256.5 -84.5q-153 0 -248 89q-94 88 -106 246z" />
    <glyph glyph-name="dotaccentcmb" unicode="&#x307;" horiz-adv-x="0" 
d="M-729 1292q0 60 44 104q47 44 107 44q62 0 106 -44q45 -44 45 -106q0 -63 -45 -106q-44 -44 -106 -44q-63 0 -107 44t-44 108z" />
    <glyph glyph-name="dieresiscmb" unicode="&#x308;" horiz-adv-x="0" 
d="M-930 1284q0 58 42 99q42 42 101 42t101 -42q42 -41 42 -100q0 -60 -42 -102q-44 -41 -101 -41q-60 0 -102 42q-41 44 -41 102zM-512 1284q0 58 42 99q43 42 101 42q60 0 101 -42q42 -41 42 -100q0 -60 -42 -102q-44 -41 -101 -41q-59 0 -101 42t-42 102z" />
    <glyph glyph-name="ringcmb" unicode="&#x30a;" horiz-adv-x="0" 
d="M-765 1345q0 88 64 151q64 64 153 64q91 0 154 -64q64 -64 64 -154t-64 -154q-63 -64 -153 -64q-91 0 -155 64q-63 64 -63 157zM-646 1343q0 -43 28.5 -71.5t70.5 -28.5t70.5 28.5t28.5 70.5t-28.5 70.5t-70.5 28.5q-21 0 -39 -8t-31.5 -21.5t-21 -31.5t-7.5 -37z" />
    <glyph glyph-name="hungarumlautcmb" unicode="&#x30b;" horiz-adv-x="0" 
d="M-431 1454l-334 -330l-99 76l244 364zM-14 1454l-334 -330l-99 76l243 364z" />
    <glyph glyph-name="caroncmb" unicode="&#x30c;" horiz-adv-x="0" 
d="M-224 1445l-351 -321l-356 321l154 119l201 -190l200 190z" />
    <glyph glyph-name="commaaccent" unicode="&#x326;" horiz-adv-x="0" 
d="M-129 -440l-75 -151l-125 53l61 151l-5 46h-81v250h225v-349z" />
    <glyph glyph-name="cedillacmb" unicode="&#x327;" horiz-adv-x="0" 
d="M-370 -199l-239 -306l-146 73l199 309z" />
    <glyph glyph-name="ogonekcmb" unicode="&#x328;" horiz-adv-x="0" 
d="M-669 0h196q-194 -129 -194 -224q0 -82 101 -82q29 0 64.5 5t80.5 15l-23 -166q-79 -49 -172 -49q-110 0 -183 61q-73 58 -73 151q0 90 46 151q46 66 157 138z" />
    <glyph glyph-name="soliduslongoverlaycmb" unicode="&#x338;" horiz-adv-x="0" 
d="M-192 1706l186 -82l-884 -2046l-184 83z" />
    <glyph glyph-name="Deltagreek" unicode="&#x394;" horiz-adv-x="1544" 
d="M51 0l592 1544h250l599 -1544h-1441zM382 216h774l-387 1046z" />
    <glyph glyph-name="Omegagreek" unicode="&#x3a9;" horiz-adv-x="1544" 
d="M66 0v208h368q-192 117 -280 268t-88 364q0 318 202 529q202 213 505 213q300 0 503 -213q203 -212 203 -528q0 -214 -88 -365t-279 -268h366v-208h-614v186q373 211 373 635q0 203 -103 348q-144 205 -360 205q-200 0 -334 -161q-133 -160 -133 -402q0 -414 375 -625
v-186h-616z" />
    <glyph glyph-name="pi" unicode="&#x3c0;" horiz-adv-x="1439" 
d="M251 0v902h-175v209h1288v-209h-172v-902h-232v902h-478v-902h-231z" />
    <glyph glyph-name="zerowidthjoiner" unicode="&#x200d;" horiz-adv-x="0" 
 />
    <glyph glyph-name="endash" unicode="&#x2013;" horiz-adv-x="1313" 
d="M237 593h838v-196h-838v196z" />
    <glyph glyph-name="emdash" unicode="&#x2014;" horiz-adv-x="1336" 
d="M0 593h1336v-196h-1336v196z" />
    <glyph glyph-name="quotesinglbase" unicode="&#x201a;" horiz-adv-x="669" 
d="M353 289l200 -78l-285 -571l-152 63z" />
    <glyph glyph-name="quotedblleft" unicode="&#x201c;" horiz-adv-x="1069" 
d="M717 961l-201 78l285 572l152 -62zM317 961l-201 78l285 572l152 -62z" />
    <glyph glyph-name="quotedblright" unicode="&#x201d;" horiz-adv-x="1069" 
d="M353 1611l200 -78l-285 -572l-152 63zM753 1611l200 -78l-285 -572l-152 63z" />
    <glyph glyph-name="quotedblbase" unicode="&#x201e;" horiz-adv-x="1069" 
d="M353 289l200 -78l-285 -571l-152 63zM753 289l200 -78l-285 -571l-152 63z" />
    <glyph glyph-name="dagger" unicode="&#x2020;" horiz-adv-x="1313" 
d="M544 1689h226v-356h318v-218h-318v-1525h-226v1525h-318v218h318v356z" />
    <glyph glyph-name="daggerdbl" unicode="&#x2021;" horiz-adv-x="1313" 
d="M544 1689h226v-356h318v-218h-318v-609h318v-217h-318v-699h-226v699h-318v217h318v609h-318v218h318v356z" />
    <glyph glyph-name="bullet" unicode="&#x2022;" horiz-adv-x="1544" 
d="M777 1112q128 0 220 -96q93 -95 93 -228q0 -136 -93 -230q-93 -95 -225 -95q-130 0 -225 95q-93 96 -93 229q0 136 94 230q95 95 229 95z" />
    <glyph glyph-name="ellipsis" unicode="&#x2026;" horiz-adv-x="1934" 
d="M183 112q0 56 41 97t98 41t98 -41t41 -98q0 -58 -41 -99q-40 -40 -98 -40q-59 0 -99 40t-40 100zM827 112q0 56 41 97t98 41q58 0 99 -41t41 -98q0 -58 -41 -99q-40 -40 -98 -40q-59 0 -99 40q-41 41 -41 100zM1472 112q0 56 41 97t98 41t98 -41t41 -98q0 -58 -41 -99
q-40 -40 -97 -40q-59 0 -99 40q-41 41 -41 100z" />
    <glyph glyph-name="perthousand" unicode="&#x2030;" horiz-adv-x="2784" 
d="M77 1201q0 145 111 252q113 107 261 107q152 0 262 -108q110 -107 110 -256q0 -150 -110 -257t-265 -107q-152 0 -261 109q-108 109 -108 260zM251 1198q0 -84 58 -142t141 -58q81 0 139 58t58 140q0 81 -58 139t-140 58t-140 -58t-58 -137zM1326 1571l109 -62
l-884 -1534l-110 66zM1054 355q0 144 111 251q113 107 261 107q153 0 263 -108q110 -107 110 -256q0 -151 -111 -257q-109 -106 -265 -106q-152 0 -261 108q-108 108 -108 261zM1229 351q0 -84 57 -142q58 -58 141 -58q82 0 139 58q58 58 58 140t-58 140q-57 58 -140 58
q-81 0 -139 -58t-58 -138zM1962 355q0 144 111 251q113 107 261 107q153 0 263 -108q110 -107 110 -256q0 -151 -111 -257q-109 -106 -265 -106q-152 0 -261 108q-108 108 -108 261zM2137 351q0 -84 57 -142q58 -58 141 -58q82 0 139 58q58 58 58 140t-58 140
q-57 58 -140 58q-81 0 -139 -58t-58 -138z" />
    <glyph glyph-name="guilsinglleft" unicode="&#x2039;" horiz-adv-x="751" 
d="M328 495l300 -383l-150 -111l-385 493l385 510l149 -110z" />
    <glyph glyph-name="guilsinglright" unicode="&#x203a;" horiz-adv-x="751" 
d="M424 495l-300 399l150 110l384 -510l-385 -493l-149 111z" />
    <glyph glyph-name="fraction" unicode="&#x2044;" horiz-adv-x="376" 
d="M576 1571l109 -62l-884 -1534l-109 66z" />
    <glyph glyph-name="Euro" unicode="&#x20ac;" horiz-adv-x="1264" 
d="M1028 1354q-235 0 -399 -170q-70 -73 -111 -160h390v-163h-673q27 237 190 430q240 283 603 283v-220zM1028 -28q-330 0 -564 231q-196 196 -228 463h672v-163h-384q37 -78 105 -146q164 -167 399 -167v-218z" />
    <glyph glyph-name="trademark" unicode="&#x2122;" horiz-adv-x="1627" 
d="M352 1393v-729h-160v729h-194v151h548v-151h-194zM600 664l189 960l293 -650l293 650l189 -960h-164l-82 479l-236 -495l-236 495l-83 -479h-163z" />
    <glyph glyph-name="Omega" unicode="&#x2126;" horiz-adv-x="1544" 
d="M66 0v208h368q-192 117 -280 268t-88 364q0 318 202 529q202 213 505 213q300 0 503 -213q203 -212 203 -528q0 -214 -88 -365t-279 -268h366v-208h-614v186q373 211 373 635q0 203 -103 348q-144 205 -360 205q-200 0 -334 -161q-133 -160 -133 -402q0 -414 375 -625
v-186h-616z" />
    <glyph glyph-name="partialdiff" unicode="&#x2202;" 
d="M173 1343l30 203q241 -30 383 -97q151 -66 270 -192q247 -262 247 -664q0 -278 -144 -447q-143 -168 -380 -168q-217 0 -371 154q-153 154 -153 371q0 210 139 355q140 146 341 146q90 0 171 -32q72 -32 143 -107q-64 143 -126 217q-31 37 -71.5 70.5t-92.5 63.5
q-173 101 -386 127zM585 833q-125 0 -210 -99q-85 -97 -85 -242q0 -141 84 -241q85 -99 205 -99q121 0 204 101t83 249q0 141 -80 236t-201 95z" />
    <glyph glyph-name="Delta" unicode="&#x2206;" horiz-adv-x="1544" 
d="M51 0l592 1544h250l599 -1544h-1441zM382 216h774l-387 1046z" />
    <glyph glyph-name="product" unicode="&#x220f;" horiz-adv-x="1657" 
d="M89 1737h1479v-216h-189v-1883h189v-216h-608v216h188v1883h-639v-1883h186v-216h-606v216h188v1883h-188v216z" />
    <glyph glyph-name="summation" unicode="&#x2211;" horiz-adv-x="1544" 
d="M1410 1737v-554h-209l-23 337h-861l582 -898l-582 -984h883l13 335h218v-551h-1374v241l570 959l-570 876v239h1353z" />
    <glyph glyph-name="minus" unicode="&#x2212;" horiz-adv-x="1313" 
d="M124 710v186h1065v-186h-1065z" />
    <glyph glyph-name="divisionslash" unicode="&#x2215;" horiz-adv-x="376" 
d="M576 1571l109 -62l-884 -1534l-109 66z" />
    <glyph glyph-name="bulletoperator" unicode="&#x2219;" horiz-adv-x="632" 
d="M177 773q0 56 41 97t98 41t98 -41t41 -98q0 -58 -41 -99q-40 -40 -98 -40q-59 0 -99 40t-40 100z" />
    <glyph glyph-name="radical" unicode="&#x221a;" horiz-adv-x="1544" 
d="M1544 1923v-216h-434l-444 -1707h-299l-162 661h-205v217h395l65 -254q17 -62 45 -298l4 -32h19q22 161 60 343t92 394l229 892h635z" />
    <glyph glyph-name="infinity" unicode="&#x221e;" horiz-adv-x="1544" 
d="M778 636q-163 -214 -372 -214q-161 0 -263 102q-102 103 -102 266q0 158 103 261t262 103q204 0 362 -213q154 213 372 213q162 0 262 -103q102 -102 102 -264q0 -160 -102 -263q-100 -103 -259 -103q-212 0 -365 215zM887 788q111 -170 224 -170q70 0 117 48
q47 50 47 122q0 70 -48 120q-46 49 -117 49q-112 0 -223 -169zM658 788q-109 169 -225 169q-70 0 -116 -49q-47 -50 -47 -120q0 -71 47 -121q48 -49 118 -49q113 0 223 170z" />
    <glyph glyph-name="integral" unicode="&#x222b;" 
d="M169 -554l46 207q77 -23 116 -23q109 0 126 102q6 37 6 191l1 1270q0 288 28 356q70 189 314 189q37 0 83 -6t101 -19l-46 -207q-77 23 -115 23q-87 0 -116 -62q-17 -46 -17 -209l-1 -135v-1156q0 -112 -3.5 -188t-10.5 -118q-14 -77 -68 -137q-90 -99 -272 -99
q-96 0 -172 21z" />
    <glyph glyph-name="approxequal" unicode="&#x2248;" 
d="M150 805l-131 86q69 158 145 225t189 67q89 0 250 -70q146 -64 212 -64q61 0 102 29q40 30 87 110l135 -78q-74 -153 -156 -219q-83 -65 -197 -65q-72 0 -211 57l-119 49q-62 28 -123 28q-102 0 -183 -155zM150 379l-131 85q69 159 145 226t189 67q92 0 250 -70
q144 -64 214 -64q59 0 100 29q40 30 87 110l135 -79q-37 -76 -75 -130.5t-80 -87.5q-83 -65 -199 -65q-71 0 -210 57l-119 49q-62 28 -123 28q-100 0 -183 -155z" />
    <glyph glyph-name="notequal" unicode="&#x2260;" 
d="M619 1084l126 255l151 -71l-90 -184h275v-208h-370l-91 -185h461v-208h-556l-120 -244l-152 71l85 173h-261v208h355l92 185h-447v208h542z" />
    <glyph glyph-name="lessequal" unicode="&#x2264;" 
d="M1081 1478v-220l-758 -342l758 -342v-220l-1004 460v197zM1081 287v-216h-1004v216h1004z" />
    <glyph glyph-name="greaterequal" unicode="&#x2265;" 
d="M77 354v220l758 342l-758 342v220l1004 -468v-197zM77 71v216h1004v-216h-1004z" />
    <glyph glyph-name="lozenge" unicode="&#x25ca;" horiz-adv-x="1544" 
d="M772 1605l602 -832l-602 -832l-601 832zM772 1230l-332 -457l332 -457l333 457z" />
    <glyph glyph-name="apple" unicode="&#xf8ff;" horiz-adv-x="1618" 
d="M836 1204q41 0 145 35t178 35q123 0 219 -66q27 -20 53.5 -44.5t53.5 -57.5q-80 -70 -117 -123q-68 -94 -68 -211q0 -127 72 -229q70 -101 162 -129q-21 -62 -51.5 -126.5t-73.5 -129.5q-131 -195 -264 -195q-55 0 -146 33q-88 27 -153 27q-68 0 -148 -29
q-86 -35 -135 -35q-155 0 -307 260q-152 262 -152 516q0 234 115 383q117 148 293 148q76 0 182 -31q109 -31 142 -31zM1149 1618q0 -66 -31 -141.5t-94 -141.5q-59 -55 -113 -73q-39 -11 -104 -17q2 152 79 263.5t257 152.5q4 -14 5 -24.5t1 -18.5z" />
    <glyph glyph-name="Dieresis" horiz-adv-x="1517" 
d="M406 1844q0 58 42 100t100 42q60 0 101 -42q42 -42 42 -102q0 -59 -42 -101q-41 -42 -100 -42q-60 0 -102 42q-41 44 -41 103zM855 1844q0 58 42 100t101 42t101 -42t42 -102q0 -59 -42 -101t-101 -42q-60 0 -102 42q-41 44 -41 103z" />
    <glyph glyph-name="Grave" horiz-adv-x="1517" 
d="M407 1959l198 139l320 -322l-111 -93z" />
    <glyph glyph-name="judge" horiz-adv-x="1435" 
d="M1010 -211l-262 -308l-146 77l210 319z" />
    <glyph glyph-name="up" horiz-adv-x="604" 
d="M677 1959l-384 -276l-111 93l305 322z" />
    <glyph glyph-name="oak" horiz-adv-x="604" 
d="M-72 1959l189 139l305 -322l-111 -93z" />
    <glyph glyph-name="uniE770" horiz-adv-x="510" 
d="M-68 1284q0 58 42 99q40 42 100 42q59 0 101 -42q42 -41 42 -100q0 -60 -42 -102q-44 -41 -101 -41q-61 0 -101 42q-41 44 -41 102zM294 1284q0 58 42 99q42 42 101 42t101 -42q42 -41 42 -100q0 -60 -42 -102q-44 -41 -101 -41q-60 0 -102 42q-41 44 -41 102z" />
    <glyph glyph-name="uniE773" horiz-adv-x="510" 
d="M607 1454l-332 -330l-124 76l253 364z" />
    <glyph glyph-name="uniE774" horiz-adv-x="510" 
d="M-96 1454l203 110l252 -364l-124 -76z" />
    <glyph glyph-name="uniE772" horiz-adv-x="510" 
d="M-82 1243l335 321l340 -321l-154 -119l-186 190l-184 -190z" />
    <glyph glyph-name="ash" horiz-adv-x="510" 
d="M367 1187l-75 -151l-125 53l61 151l-5 46h-81v250h225v-349z" />
    <glyph glyph-name="yea" horiz-adv-x="1725" 
d="M535 2026h185q23 -158 174 -158q150 0 173 158h185q-15 -167 -106.5 -251t-256.5 -84q-153 0 -248 89q-94 88 -106 246z" />
    <glyph glyph-name="ice" horiz-adv-x="604" 
d="M-51 1802l351 321l356 -321l-154 -119l-202 190l-199 -190z" />
    <glyph glyph-name="sure" horiz-adv-x="1517" 
d="M421 1802l351 321l356 -321l-154 -119l-202 190l-199 -190z" />
    <glyph glyph-name="hung" horiz-adv-x="1517" 
d="M495 1699l-131 111l29 41q28 40 54 67.5t53 45t56 25t63 7.5q78 0 181 -52q104 -53 134 -53q56 0 124 108l127 -106q-96 -192 -260 -192q-56 0 -183 56q-91 46 -136 46q-55 0 -111 -104z" />
    <glyph glyph-name="fee" horiz-adv-x="1517" 
d="M556 1906q0 88 64 151q64 64 153 64q91 0 154 -64q64 -64 64 -154t-64 -154q-63 -64 -153 -64q-91 0 -155 64q-63 64 -63 157zM675 1904q0 -43 28.5 -71.5t70.5 -28.5t70.5 28.5t28.5 70.5t-28.5 70.5t-70.5 28.5q-21 0 -39 -8t-31.5 -21.5t-21 -31.5t-7.5 -37z" />
    <glyph glyph-name="Caron" horiz-adv-x="1280" 
d="M1040 2004l-351 -321l-356 321l154 119l201 -190l200 190z" />
    <glyph glyph-name="Acute" 
d="M962 1959l-408 -276l-111 93l321 322z" />
    <glyph glyph-name="eat" horiz-adv-x="604" 
d="M-29 1844q0 56 41 100q42 42 101 42t101 -42t42 -102q0 -59 -42 -101t-101 -42q-61 0 -101 42q-41 44 -41 103zM348 1844q0 58 42 100q43 42 101 42q59 0 101 -42t42 -102q0 -59 -42 -101t-101 -42t-101 42t-42 103z" />
    <glyph glyph-name="kick" horiz-adv-x="604" 
d="M151 1851q0 61 44 105q47 44 107 44q62 0 106 -44q45 -44 45 -106q0 -64 -45 -107q-44 -44 -106 -44q-63 0 -107 44q-44 47 -44 108z" />
    <glyph glyph-name="uniF6C3" horiz-adv-x="510" 
d="M380 -440l-75 -151l-125 53l61 151l-5 46h-81v250h225v-349z" />
    <glyph glyph-name="uniE784" horiz-adv-x="510" 
d="M151 1472l75 151l125 -53l-61 -151l5 -46h81v-250h-225v349z" />
    <glyph glyph-name="Hungarumlaut" horiz-adv-x="1830" 
d="M1496 1959l-408 -276l-111 93l321 322zM1078 1959l-408 -276l-111 93l321 322z" />
    <glyph glyph-name="Macron" 
d="M241 1907h701v-180h-701v180z" />
    <glyph glyph-name="ooze" horiz-adv-x="604" 
d="M3 1907h603v-180h-603v180z" />
    <glyph glyph-name="uniE775" horiz-adv-x="510" 
d="M0 1343h510v-180h-510v180z" />
    <glyph glyph-name="dotlessj" horiz-adv-x="679" 
d="M453 845v-1199h-226v1199h226z" />
    </font>
</defs>
</svg>
